百度云资源论坛

 找回密码
 立即注册
搜索

48小时闯天关/四十八小时2 Another.48.Hrs.1990.REMASTERED.720p.BluRay.x264-VETO 5. ...

[复制链接]
admin 发表于 2021-11-29 17:02:45 | 显示全部楼层 |阅读模式
48小时闯天关/四十八小时2 Another.48.Hrs.1990.REMASTERED.720p.BluRay.x264-VETO 5.90GB                                                                                                                                                                              -->
帖子完整标题:48小时闯天关/四十八小时2 Another.48.Hrs.1990.REMASTERED.720p.BluRay.x264-VETO 5.90GB





◎译  名 48小时闯天关/四十八小时2/新48小时
◎片  名 Another 48 Hrs.
◎年  代 1990
◎产  地 美国
◎类  别 剧情 / 喜剧 / 动作 / 惊悚 / 犯罪
◎语  言 英语
◎上映日期 1990-06-08
◎豆瓣评分 6.0/10 from 176 users
◎ 
◎片  长 93 分钟
◎导  演 沃尔特·希尔 Walter Hill
◎编  剧 杰布·斯图尔特 Jeb Stuart / 斯蒂芬·E.德·索萨 Steven E. de Souza / 拉里·格罗斯 Larry Gross / 约翰·法沙诺 John Fasano / 罗杰·斯波蒂斯伍德 Roger Spottiswoode / 沃尔特·希尔 Walter Hill / 艾迪·墨菲 Eddie Murphy
◎主  演 艾迪·墨菲 Eddie Murphy
     尼克·诺特 Nick Nolte
     布里翁·詹姆斯 Brion James
     谢娜·奥勃良 Shauna O'Brien
     Dawn Robinson Dawn Robinson
     Edgar Small Edgar Small
     Michael Williams Michael Williams
     Edward Walsh Edward Walsh
     佩姬·梁 Page Leong
     布赖特·詹宁斯 Brent Jennings
     阿兰·格拉夫 Allan Graf
     埃德·欧罗斯 Ed O'Ross
     菲利斯·奥兰迪 Felice Orlandi
     小猫娜提雅维达 Kitten Natividad
     Hoke Howell Hoke Howell
     提莎·坎贝尔-马丁 Tisha Campbell-Martin
     丹尼斯海顿 Dennis Hayden
     凯文·泰德 Kevin Tighe
     安德鲁·迪沃夫 Andrew Divoff
     伯尼·凯西 Bernie Casey
     Alisa Christensen Alisa Christensen
     维克托·勃兰特 Victor Brandt
     特德·马克兰德 Ted Markland
     Benjamin Lum Benjamin Lum
     Russ McCubbin Russ McCubbin
     弗兰克·麦克雷 Frank McRae
     Richard Lee-Sung Richard Lee-Sung
     John Del Regno John Del Regno
     南茜·艾薇哈德 Nancy Everhard
     Deirdre Fitzpatrick Deirdre Fitzpatrick

◎标  签 美国 | 动作 | 喜剧 | 1990 | 美国电影 | 警匪 | 犯罪 | 艾迪墨菲

◎简  介

  白人警探尼克.诺尔蒂为了追查神秘的毒贩"卖冰人",不得不找当年的黑人罪犯搭档埃迪.墨菲协助提供线索。埃迪因有一笔巨款仍寄存在尼克手上,只好不情不愿地加以帮忙,但二人在合作过程中发生多起冲突。最后,他们还是发现了卖冰人"的真正身份,原来是警察中人。全片从编剧的情节安排,到导演的动作设计,再到演员的卖力演出,处处可见台前幕后工作人员尽力使本片显得热闹好看的努力,不过最终还是摆脱不了既有的框架,只是在公式化之中转圈圈,甚至埃迪的惹笑伎俩也显得有点技穷了。
Video
ID             : 1
Format           : AVC
Format/Info          : Advanced Video Codec
Format profile         :
Format settings        : CABAC / 8 Ref Frames
Format settings, CABAC       : Yes
Format settings, Reference frames  : 8 frames
Codec ID           : V_MPEG4/ISO/AVC
Duration           : 1 h 35 min
Bit rate           : 8 128 kb/s
Width            : 1 280 pixels
Height           : 694 pixels
Display aspect ratio       : 1.85:1
Frame rate mode        : Constant
Frame rate           : 23.976 (24000/1001/189150) FPS
Color space          : YUV
Chroma subsampling       : 4:2:0
Bit depth          : 8 bits
Scan type          : Progressive
Bits/(Pixel*Frame)       : 0.382
Stream size          : 5.42 GiB (92%)
Writing library        : x264 core 164 r3075 66a5bc1
Encoding settings        : cabac=1 / ref=8 / deblock=1:-3:-3 / analyse=0x3:0x133 / me=umh / subme=9 / psy=1 / psy_rd=1.00:0.00 / mixed_ref=1 / me_range=16 / chroma_me=1 / trellis=2 / 8x8dct=1 / cqm=0 / deadzone=21,11 / fast_pskip=0 / chroma_qp_offset=-2 / threads=24 / lookahead_threads=2 / sliced_threads=0 / nr=0 / decimate=0 / interlaced=0 / bluray_compat=0 / constrained_intra=0 / bframes=3 / b_pyramid=2 / b_adapt=2 / b_bias=0 / direct=3 / weightb=1 / open_gop=0 / weightp=2 / keyint=250 / keyint_min=23 / scenecut=40 / intra_refresh=0 / rc=crf / mbtree=0 / crf=18.0 / qcomp=0.60 / qpmin=0 / qpmax=69 / qpstep=4 / ip_ratio=1.40 / pb_ratio=1.30 / aq=3:0.70
Language           : English
Default            : Yes
Forced           : No
Color range          : Limited
Matrix coefficients        : BT.709

Audio
ID             : 2
Format           : AC-3
Format/Info          : Audio Coding 3
Commercial name        : Dolby Digital
Codec ID           : A_AC3
Duration           : 1 h 35 min
Bit rate mode          : Constant
Bit rate           : 640 kb/s
Channel(s)           : 6 channels
Channel layout         : L R C LFE Ls Rs
Sampling rate          : 48.0 kHz
Frame rate           : 31.250 FPS (1536 SPF)
Compression mode         : Lossy
Stream size          : 437 MiB (7%)
Language           : English
Service kind         : Complete Main
Default            : Yes
Forced           : No

Text #1
ID             : 3
Format           : UTF-8
Codec ID           : S_TEXT/UTF8
Codec ID/Info          : UTF-8 Plain Text
Duration           : 1 h 27 min
Bit rate           : 74 b/s
Count of elements        : 1215
Stream size          : 47.8 KiB (0%)
Title            : English (SRT)
Language           : English
Default            : No
Forced           : No

Text #2
ID             : 4
Format           : UTF-8
Codec ID           : S_TEXT/UTF8
Codec ID/Info          : UTF-8 Plain Text
Duration           : 1 h 30 min
Bit rate           : 78 b/s
Count of elements        : 1376
Stream size          : 52.6 KiB (0%)
Title            : English (SDH SRT)
Language           : English
Default            : No
Forced           : No

Text #3
ID             : 5
Format           : PGS
Muxing mode          : zlib
Codec ID           : S_HDMV/PGS
Codec ID/Info          : Picture based subtitle format used on BDs/HD-DVDs
Duration           : 1 h 27 min
Bit rate           : 50.4 kb/s
Count of elements        : 2430
Stream size          : 31.7 MiB (1%)
Title            : English
Language           : English
Default            : No
Forced           : No

Text #4
ID             : 6
Format           : PGS
Muxing mode          : zlib
Codec ID           : S_HDMV/PGS
Codec ID/Info          : Picture based subtitle format used on BDs/HD-DVDs
Duration           : 1 h 30 min
Bit rate           : 53.5 kb/s
Count of elements        : 2752
Stream size          : 34.8 MiB (1%)
Title            : English (SDH)
Language           : English
Default            : No
Forced           : No

Text #5
ID             : 7
Format           : PGS
Muxing mode          : zlib
Codec ID           : S_HDMV/PGS
Codec ID/Info          : Picture based subtitle format used on BDs/HD-DVDs
Duration           : 1 h 30 min
Bit rate           : 32.1 kb/s
Count of elements        : 1434
Stream size          : 20.8 MiB (0%)
Title            : German
Language           : German
Default            : No
Forced           : No

Text #6
ID             : 8
Format           : PGS
Muxing mode          : zlib
Codec ID           : S_HDMV/PGS
Codec ID/Info          : Picture based subtitle format used on BDs/HD-DVDs
Duration           : 1 h 27 min
Bit rate           : 34.0 kb/s
Count of elements        : 1584
Stream size          : 21.4 MiB (0%)
Title            : French
Language           : French
Default            : No
Forced           : No

Text #7
ID             : 9
Format           : PGS
Muxing mode          : zlib
Codec ID           : S_HDMV/PGS
Codec ID/Info          : Picture based subtitle format used on BDs/HD-DVDs
Duration           : 1 h 27 min
Bit rate           : 24.7 kb/s
Count of elements        : 1836
Stream size          : 15.5 MiB (0%)
Title            : Japanese
Language           : Japanese
Default            : No
Forced           : No

Menu
00:00:00.000         : en:Chapter 01
00:07:45.965         : en:Chapter 02
00:13:22.301         : en:Chapter 03
00:20:26.725         : en:Chapter 04
00:24:25.381         : en:Chapter 05
00:32:47.257         : en:Chapter 06
00:42:21.414         : en:Chapter 07
00:52:42.201         : en:Chapter 08
00:57:38.622         : en:Chapter 09
01:07:20.620         : en:Chapter 10
01:11:11.434         : en:Chapter 11
01:17:12.211         : en:Chapter 12
01:21:49.863         : en:Chapter 13
01:29:33.702         : en:Chapter 14
01:32:24.789         : en:Chapter 15






                                                                  
                                                                                                                                                                                                                                                                                 
14c3d4dc331fa70da3af75bae0cd4c4a.torrent (15.49 KB, 下载次数: 0)

回复

使用道具 举报

小黑屋|百度云资源论坛

本网站所有资源来自网络,如无意中侵犯了您的权益,请发邮件至 [email protected],立即清除相关链接

GMT+8, 2024-7-21 01:03 , Processed in 0.112335 second(s), 30 queries .

Powered by Discuz! X3.2

© 2001-2013 Comsenz Inc.

快速回复 返回顶部 返回列表