百度云资源论坛

 找回密码
 立即注册
搜索

48小时/四十八小时 48.Hrs.1982.REMASTERED.720p.BluRay.x264-VETO 6.48GB

[复制链接]
admin 发表于 2021-11-28 19:50:54 | 显示全部楼层 |阅读模式
48小时/四十八小时 48.Hrs.1982.REMASTERED.720p.BluRay.x264-VETO 6.48GB                                                                                                                                                                              -->
帖子完整标题:48小时/四十八小时 48.Hrs.1982.REMASTERED.720p.BluRay.x264-VETO 6.48GB





◎译  名 48小时/四十八小时/特赦48小时
◎片  名 48 Hrs.
◎年  代 1982
◎产  地 美国
◎类  别 剧情 / 喜剧 / 动作 / 惊悚 / 犯罪
◎语  言 英语
◎上映日期 1982-12-08(美国)
◎豆瓣评分 6.5/10 from 384 users
◎ 
◎片  长 96 分钟
◎导  演 沃尔特·希尔 Walter Hill
◎编  剧 罗杰·斯波蒂斯伍德 Roger Spottiswoode / 沃尔特·希尔 Walter Hill / 拉里·格罗斯 Larry Gross / 斯蒂芬·E.德·索萨 Steven E. de Souza
◎主  演 尼克·诺特 Nick Nolte
     艾迪·墨菲 Eddie Murphy
     安妮特·奥图 Annette O'Toole
     弗兰克·麦克雷 Frank McRae
     詹姆斯·瑞马尔 James Remar
     大卫·帕特里克·凯利 David Patrick Kelly
     索尼·兰哈姆 Sonny Landham
     布里翁·詹姆斯 Brion James
     Kerry Sherman Kerry Sherman
     乔纳森·班克斯 Jonathan Banks
     詹姆斯·基恩 James Keane
     Margot Rose Margot Rose
     丹尼斯·克罗斯比 Denise Crosby
     Olivia Brown Olivia Brown
     Todd Allen Todd Allen
     Bill Dearth Bill Dearth
     内德·道德 Ned Dowd
     吉姆·海尼 Jim Haynie
     杰克·唐蒂博 Jack Thibeau
     桑迪·马丁 Sandy Martin
     Matt Landers Matt Landers
     皮特·杰森 Peter Jason
     克里斯·马尔基 Chris Mulkey
     马塞利诺·桑切斯 Marcelino Sánchez
     Bennie E. Dobbins Bennie E. Dobbins
     Begonya Plaza Begonya Plaza
     罗伊德·卡特莱特 Loyd Catlett
     里德·克鲁克香克斯 Reid Cruickshanks
     R.D. Call R.D. Call
     布伦达·维纳斯 Brenda Venus
     约翰·丹尼斯·约翰斯顿 John Dennis Johnston
     Jack Lightsy Jack Lightsy
     Luis Contreras Luis Contreras
     欧拉·蕾 Ola Ray
     Fritz Ford Fritz Ford
     Kevin O'Neal Kevin O'Neal
     Walter Scott Walter Scott
     John Hauk John Hauk

◎标  签 美国 | 喜剧 | 动作 | 犯罪 | 1982 | 警匪 | 美国电影 | 艾迪·墨菲

◎简  介

  杰克凯斯为三藩市一名资深警探,从21岁加入警界以来一直未能有所表现。雷吉汉蒙德为黑人区一名惯犯,从15岁起开始犯案累累。巧的是两人都想力图改变现况,而更巧的是两人竟然在同时间不期而遇,因此引发了一场争斗。
  
  重刑犯艾伯特·刚茨在他的老搭档比利·拜尔的帮助下成功越狱,他们立即杀死了自己的同伙亨利·王,用假名字住进了三藩市的瓦尔登旅馆。年轻干探杰克·盖茨(Nick Nolte饰)郁不得志,酗酒成性。此番受命与同事VanZant 和Algren入住瓦尔登旅馆,调查名叫G. P. Polson的人,不想VanZant 和Algren被艾伯特所害。杰克欲为同事报仇,劝服上司Haden让他独立办案。杰克到监狱探视艾伯特从前的搭档雷吉·汉蒙德(Eddie Murphy饰),以减刑为由,希望雷吉帮助他抓捕艾伯特和比利,雷吉勉强答应,但杰克只能将其带出监狱48小时,更糟的是二人之间发生了争执并在垃圾填埋场大打出手。原来,雷吉在垃圾场停有一车,车上有他入狱前存的500000美元。现在,艾伯特绑架了知道车的位置的同伙路德的女友,逼路德将车找出。雷吉得知此事,为赶在返回监狱前保住那笔钱,不得不与杰克捐弃前嫌,协力追捕艾伯特……
Video
ID             : 1
Format           : AVC
Format/Info          : Advanced Video Codec
Format profile         :
Format settings        : CABAC / 8 Ref Frames
Format settings, CABAC       : Yes
Format settings, Reference frames  : 8 frames
Codec ID           : V_MPEG4/ISO/AVC
Duration           : 1 h 36 min
Bit rate           : 8 895 kb/s
Width            : 1 280 pixels
Height           : 694 pixels
Display aspect ratio       : 1.85:1
Frame rate mode        : Constant
Frame rate           : 23.976 (24000/1001/189150) FPS
Color space          : YUV
Chroma subsampling       : 4:2:0
Bit depth          : 8 bits
Scan type          : Progressive
Bits/(Pixel*Frame)       : 0.418
Stream size          : 6.00 GiB (93%)
Writing library        : x264 core 164 r3075 66a5bc1
Encoding settings        : cabac=1 / ref=8 / deblock=1:-3:-3 / analyse=0x3:0x133 / me=umh / subme=9 / psy=1 / psy_rd=1.00:0.00 / mixed_ref=1 / me_range=16 / chroma_me=1 / trellis=2 / 8x8dct=1 / cqm=0 / deadzone=21,11 / fast_pskip=0 / chroma_qp_offset=-2 / threads=24 / lookahead_threads=2 / sliced_threads=0 / nr=0 / decimate=0 / interlaced=0 / bluray_compat=0 / constrained_intra=0 / bframes=3 / b_pyramid=2 / b_adapt=2 / b_bias=0 / direct=3 / weightb=1 / open_gop=0 / weightp=2 / keyint=250 / keyint_min=23 / scenecut=40 / intra_refresh=0 / rc=crf / mbtree=0 / crf=17.0 / qcomp=0.60 / qpmin=0 / qpmax=69 / qpstep=4 / ip_ratio=1.40 / pb_ratio=1.30 / aq=3:0.70
Language           : English
Default            : Yes
Forced           : No
Color range          : Limited
Matrix coefficients        : BT.709

Audio
ID             : 2
Format           : AC-3
Format/Info          : Audio Coding 3
Commercial name        : Dolby Digital
Codec ID           : A_AC3
Duration           : 1 h 36 min
Bit rate mode          : Constant
Bit rate           : 640 kb/s
Channel(s)           : 6 channels
Channel layout         : L R C LFE Ls Rs
Sampling rate          : 48.0 kHz
Frame rate           : 31.250 FPS (1536 SPF)
Compression mode         : Lossy
Stream size          : 442 MiB (7%)
Language           : English
Service kind         : Complete Main
Default            : Yes
Forced           : No

Text #1
ID             : 3
Format           : UTF-8
Codec ID           : S_TEXT/UTF8
Codec ID/Info          : UTF-8 Plain Text
Duration           : 1 h 29 min
Bit rate           : 42 b/s
Count of elements        : 640
Stream size          : 27.5 KiB (0%)
Title            : English (SRT)
Language           : English
Default            : No
Forced           : No

Text #2
ID             : 4
Format           : UTF-8
Codec ID           : S_TEXT/UTF8
Codec ID/Info          : UTF-8 Plain Text
Duration           : 1 h 31 min
Bit rate           : 73 b/s
Count of elements        : 1323
Stream size          : 49.3 KiB (0%)
Title            : English (SDH SRT)
Language           : English
Default            : No
Forced           : No

Text #3
ID             : 5
Format           : PGS
Muxing mode          : zlib
Codec ID           : S_HDMV/PGS
Codec ID/Info          : Picture based subtitle format used on BDs/HD-DVDs
Duration           : 1 h 29 min
Bit rate           : 25.3 kb/s
Count of elements        : 1280
Stream size          : 16.1 MiB (0%)
Title            : English
Language           : English
Default            : No
Forced           : No

Text #4
ID             : 6
Format           : PGS
Muxing mode          : zlib
Codec ID           : S_HDMV/PGS
Codec ID/Info          : Picture based subtitle format used on BDs/HD-DVDs
Duration           : 1 h 31 min
Bit rate           : 49.6 kb/s
Count of elements        : 2646
Stream size          : 32.6 MiB (0%)
Title            : English (SDH)
Language           : English
Default            : No
Forced           : No

Text #5
ID             : 7
Format           : PGS
Muxing mode          : zlib
Codec ID           : S_HDMV/PGS
Codec ID/Info          : Picture based subtitle format used on BDs/HD-DVDs
Duration           : 1 h 29 min
Bit rate           : 27.2 kb/s
Count of elements        : 1356
Stream size          : 17.3 MiB (0%)
Title            : German
Language           : German
Default            : No
Forced           : No

Text #6
ID             : 8
Format           : PGS
Muxing mode          : zlib
Codec ID           : S_HDMV/PGS
Codec ID/Info          : Picture based subtitle format used on BDs/HD-DVDs
Duration           : 1 h 31 min
Bit rate           : 34.8 kb/s
Count of elements        : 2374
Stream size          : 22.7 MiB (0%)
Title            : French
Language           : French
Default            : No
Forced           : No

Text #7
ID             : 9
Format           : PGS
Muxing mode          : zlib
Codec ID           : S_HDMV/PGS
Codec ID/Info          : Picture based subtitle format used on BDs/HD-DVDs
Duration           : 1 h 29 min
Bit rate           : 20.8 kb/s
Count of elements        : 1936
Stream size          : 13.2 MiB (0%)
Title            : Japanese
Language           : Japanese
Default            : No
Forced           : No

Menu
00:00:00.000         : en:Chapter 01
00:05:11.186         : en:Chapter 02
00:10:51.234         : en:Chapter 03
00:20:02.576         : en:Chapter 04
00:24:10.866         : en:Chapter 05
00:30:00.966         : en:Chapter 06
00:36:52.836         : en:Chapter 07
00:46:17.400         : en:Chapter 08
00:57:28.612         : en:Chapter 09
01:06:19.184         : en:Chapter 10
01:11:17.023         : en:Chapter 11
01:15:49.044         : en:Chapter 12
01:19:29.348         : en:Chapter 13
01:29:36.246         : en:Chapter 14
01:32:28.918         : en:Chapter 15






                                                                  
                                                                                                                                                                                                                                                                                 
1f98bcb9fd6bdebd109ca7fde49b0071.torrent (16.91 KB, 下载次数: 0)

回复

使用道具 举报

小黑屋|百度云资源论坛

本网站所有资源来自网络,如无意中侵犯了您的权益,请发邮件至 [email protected],立即清除相关链接

GMT+8, 2024-7-21 01:04 , Processed in 0.095876 second(s), 30 queries .

Powered by Discuz! X3.2

© 2001-2013 Comsenz Inc.

快速回复 返回顶部 返回列表