百度云资源论坛

 找回密码
 立即注册
搜索

圣雅各的天空/卡米诺天空 Camino.Skies.2019.720p.BluRay.x264-GUACAMOLE 4.60GB ... ...

[复制链接]
admin 发表于 2021-11-29 17:02:45 | 显示全部楼层 |阅读模式
圣雅各的天空/卡米诺天空 Camino.Skies.2019.720p.BluRay.x264-GUACAMOLE 4.60GB                                                                                                                                                                              -->
帖子完整标题:圣雅各的天空/卡米诺天空 Camino.Skies.2019.720p.BluRay.x264-GUACAMOLE 4.60GB





◎译  名 圣雅各的天空/卡米诺天空/圣雅各的天空(台)
◎片  名 Camino Skies
◎年  代 2019
◎产  地 新西兰,澳大利亚
◎类  别 纪录片
◎语  言 英语,法语
◎上映日期 2019-07-11(新西兰)
◎豆瓣评分 /10 from 0 users
◎ 
◎片  长 80分钟

◎标  签 纪录片 | 新西兰 | 2019 | 紀錄片 | 朝圣 | 紐西蘭 | 徒步 | 圣地亚哥

◎简  介

  探索精神、幸福和宗教的主题,这是6位来自新西兰和澳大利亚的陌生人在800公里的卡米诺圣地亚哥步行,克服生活给他们带来的个人和身体创伤的励志之旅。通过水泡,胫骨夹板和热量,卡米诺强迫朝圣者挑战他们的年龄和身体能力,同时也作为一个改变的催化剂。《卡米诺天空》既令人心碎又鼓舞人心,是一个让人振奋的故事,讲述的是日常生活中人们做的不平凡的事情。
Video
ID             : 1
Format           : AVC
Format/Info          : Advanced Video Codec
Format profile         :
Format settings        : CABAC / 8 Ref Frames
Format settings, CABAC       : Yes
Format settings, Reference frames  : 8 frames
Codec ID           : V_MPEG4/ISO/AVC
Duration           : 1 h 20 min
Bit rate           : 7 492 kb/s
Width            : 1 280 pixels
Height           : 690 pixels
Display aspect ratio       : 1.85:1
Frame rate mode        : Constant
Frame rate           : 24.000 FPS
Color space          : YUV
Chroma subsampling       : 4:2:0
Bit depth          : 8 bits
Scan type          : Progressive
Bits/(Pixel*Frame)       : 0.353
Stream size          : 4.23 GiB (92%)
Writing library        : x264 core 164 r3075 66a5bc1
Encoding settings        : cabac=1 / ref=8 / deblock=1:-3:-3 / analyse=0x3:0x133 / me=umh / subme=9 / psy=1 / psy_rd=1.00:0.00 / mixed_ref=1 / me_range=16 / chroma_me=1 / trellis=2 / 8x8dct=1 / cqm=0 / deadzone=21,11 / fast_pskip=0 / chroma_qp_offset=-2 / threads=22 / lookahead_threads=1 / sliced_threads=0 / nr=0 / decimate=1 / interlaced=0 / bluray_compat=0 / constrained_intra=0 / bframes=3 / b_pyramid=2 / b_adapt=2 / b_bias=0 / direct=3 / weightb=1 / open_gop=0 / weightp=2 / keyint=250 / keyint_min=24 / scenecut=40 / intra_refresh=0 / rc_lookahead=60 / rc=crf / mbtree=1 / crf=17.0 / qcomp=0.60 / qpmin=0 / qpmax=69 / qpstep=4 / ip_ratio=1.40 / aq=3:1.00
Default            : Yes
Forced           : No
Color range          : Limited
Matrix coefficients        : BT.709

Audio
ID             : 2
Format           : AC-3
Format/Info          : Audio Coding 3
Commercial name        : Dolby Digital
Codec ID           : A_AC3
Duration           : 1 h 20 min
Bit rate mode          : Constant
Bit rate           : 640 kb/s
Channel(s)           : 6 channels
Channel layout         : L R C LFE Ls Rs
Sampling rate          : 48.0 kHz
Frame rate           : 31.250 FPS (1536 SPF)
Compression mode         : Lossy
Stream size          : 370 MiB (8%)
Language           : English
Service kind         : Complete Main
Default            : Yes
Forced           : No

Text #1
ID             : 3
Format           : PGS
Muxing mode          : zlib
Codec ID           : S_HDMV/PGS
Codec ID/Info          : Picture based subtitle format used on BDs/HD-DVDs
Duration           : 1 h 15 min
Bit rate           : 26.4 kb/s
Count of elements        : 1494
Stream size          : 14.2 MiB (0%)
Language           : German
Default            : No
Forced           : No

Text #2
ID             : 4
Format           : PGS
Muxing mode          : zlib
Codec ID           : S_HDMV/PGS
Codec ID/Info          : Picture based subtitle format used on BDs/HD-DVDs
Duration           : 58 min 2 s
Bit rate           : 222 b/s
Count of elements        : 12
Stream size          : 94.5 KiB (0%)
Language           : German
Default            : No
Forced           : No

Menu
00:00:00.000         : en:00:00:00.000
00:06:16.125         : en:00:06:16.125
00:13:01.917         : en:00:13:01.917
00:20:02.833         : en:00:20:02.833
00:25:30.625         : en:00:25:30.625
00:33:25.083         : en:00:33:25.083
00:38:02.167         : en:00:38:02.167
00:44:33.292         : en:00:44:33.292
00:51:32.042         : en:00:51:32.042
00:58:08.792         : en:00:58:08.792
01:05:08.375         : en:01:05:08.375
01:12:01.375         : en:01:12:01.375






                                                                  
                                                                                                                                                                                                                                                                                 
33dd7b2c77fda87ee035220f3b4ff4f7.torrent (23.67 KB, 下载次数: 0)

回复

使用道具 举报

小黑屋|百度云资源论坛

本网站所有资源来自网络,如无意中侵犯了您的权益,请发邮件至 [email protected],立即清除相关链接

GMT+8, 2024-7-21 01:58 , Processed in 0.098459 second(s), 26 queries .

Powered by Discuz! X3.2

© 2001-2013 Comsenz Inc.

快速回复 返回顶部 返回列表