百度云资源论坛

 找回密码
 立即注册
搜索

狐步六号 Foxtrot.Six.2019.720p.BluRay.x264-JustWatch 2.53GB

[复制链接]
admin 发表于 2021-11-27 22:41:15 | 显示全部楼层 |阅读模式
狐步六号 Foxtrot.Six.2019.720p.BluRay.x264-JustWatch 2.53GB                                                                                                                                                                              -->
帖子完整标题:狐步六号 Foxtrot.Six.2019.720p.BluRay.x264-JustWatch 2.53GB





◎译  名 狐步六号
◎片  名 Foxtrot Six
◎年  代 2019
◎产  地 印度尼西亚,美国
◎类  别 剧情 / 动作 / 科幻
◎语  言 印度尼西亚语,英语
◎上映日期 2019-02-21(印度尼西亚)
◎豆瓣评分 5.4/10 from 202 users
◎ 
◎主  演 奥卡·安塔拉 Oka Antara
     阿里芬·普特拉 Arifin Putra
     朱莉·埃斯特尔 Julie Estelle
     米勒·可汗 Miller Khan

◎标  签 动作 | 印尼 | 暴力 | 印尼动作片 | 科幻 | 犯罪 | 战争 | 反恐

◎简  介

  在我们的孩子时代,不断升级的气候变化正在使世界经济翻天覆地。随着农作物的死亡和食品价格的飙升,食品已取代石油成为世界上最有价值的商品。在仅存的几块土地中,印尼正迅速崛起成为下一个经济超级大国,当时印尼政府突然被一个广受欢迎的流氓政党皮拉纳斯无情地取代。
  
  安加·萨普特拉,一位雄心勃勃的前海军陆战队议员,后来成为了皮拉纳斯的国会议员,他有一个主要的指示:控制人民的士气和服从,阻止任何可能激怒皮拉纳斯党的地下反叛组织。尤其是一个自称为“改革”的大集团。
  
  安加被迫与一个老对手维斯努(wisnu)联合作战,这个老对手是一个冷酷无情的准军事领导人。在这次行动中,一个单独的安哥拉被一组改革组织截获、俘获并拖到地下。但安加并没有遇到敌人,反而遇到了他所谓的死去的未婚妻,一位曾获奖的现场记者,萨里·尼尔马拉。在那里,安加了解到,该党一直在撒谎,并以牺牲自己人民的饥饿为代价出口了大量的农产品。
  
  当维斯努突然攻破改革安全屋时,安加别无选择,只能拯救萨里和其他人并逃跑,从而宣布他是一个叛徒和皮拉纳斯党的敌人。
  
  除了奥吉、巴拉、伊桑和蒂诺,还有一个神秘的沉默改革刺客,这名刺客只知道自己的名字,斯派克。六人一起发现了皮拉纳斯和维斯努的新的邪恶计划:一个虚假的旗帜攻击,有效地消除了全国政府中所有改革和他们的同情者。批准的种族灭绝。
  
  在短短的三天时间里,这六个人必须一起努力,找到他们早已失去的兄弟情谊,停止全国范围内的假旗攻击,拯救数百万人的生命,最后一次获得救赎。或者尝试死亡。
Video
ID             : 1
Format           : AVC
Format/Info          : Advanced Video Codec
Format profile         :
Format settings        : CABAC / 8 Ref Frames
Format settings, CABAC       : Yes
Format settings, Reference frames  : 8 frames
Codec ID           : V_MPEG4/ISO/AVC
Duration           : 1 h 55 min
Bit rate           : 2 489 kb/s
Width            : 1 280 pixels
Height           : 536 pixels
Display aspect ratio       : 2.40:1
Frame rate mode        : Constant
Frame rate           : 23.976 (24000/1001/189150) FPS
Color space          : YUV
Chroma subsampling       : 4:2:0
Bit depth          : 8 bits
Scan type          : Progressive
Bits/(Pixel*Frame)       : 0.151
Stream size          : 2.00 GiB (79%)
Writing library        : x264 core 164 r3075 66a5bc1
Encoding settings        : cabac=1 / ref=8 / deblock=1:-3:-3 / analyse=0x3:0x133 / me=umh / subme=9 / psy=1 / psy_rd=1.00:0.00 / mixed_ref=1 / me_range=16 / chroma_me=1 / trellis=2 / 8x8dct=1 / cqm=0 / deadzone=21,11 / fast_pskip=0 / chroma_qp_offset=-2 / threads=17 / lookahead_threads=1 / sliced_threads=0 / nr=0 / decimate=1 / interlaced=0 / bluray_compat=0 / constrained_intra=0 / bframes=3 / b_pyramid=2 / b_adapt=2 / b_bias=0 / direct=3 / weightb=1 / open_gop=0 / weightp=2 / keyint=250 / keyint_min=23 / scenecut=40 / intra_refresh=0 / rc_lookahead=60 / rc=crf / mbtree=1 / crf=17.0 / qcomp=0.60 / qpmin=0 / qpmax=69 / qpstep=4 / ip_ratio=1.40 / aq=1:1.00
Language           : English
Default            : Yes
Forced           : No

Audio
ID             : 2
Format           : AC-3
Format/Info          : Audio Coding 3
Commercial name        : Dolby Digital
Codec ID           : A_AC3
Duration           : 1 h 55 min
Bit rate mode          : Constant
Bit rate           : 640 kb/s
Channel(s)           : 6 channels
Channel layout         : L R C LFE Ls Rs
Sampling rate          : 48.0 kHz
Frame rate           : 31.250 FPS (1536 SPF)
Compression mode         : Lossy
Stream size          : 527 MiB (20%)
Language           : English
Service kind         : Complete Main
Default            : Yes
Forced           : No

Text #1
ID             : 3
Format           : PGS
Muxing mode          : zlib
Codec ID           : S_HDMV/PGS
Codec ID/Info          : Picture based subtitle format used on BDs/HD-DVDs
Duration           : 1 h 53 min
Bit rate           : 25.7 kb/s
Count of elements        : 2200
Stream size          : 20.9 MiB (1%)
Language           : German
Default            : No
Forced           : No

Text #2
ID             : 4
Format           : PGS
Muxing mode          : zlib
Codec ID           : S_HDMV/PGS
Codec ID/Info          : Picture based subtitle format used on BDs/HD-DVDs
Duration           : 1 h 40 min
Bit rate           : 808 b/s
Count of elements        : 50
Stream size          : 597 KiB (0%)
Language           : German
Default            : No
Forced           : No

Menu
00:00:00.000         : en:Chapter 01
00:09:34.908         : en:Chapter 02
00:18:09.714         : en:Chapter 03
00:31:39.189         : en:Chapter 04
00:37:39.466         : en:Chapter 05
00:47:03.904         : en:Chapter 06
00:55:52.099         : en:Chapter 07
01:01:03.743         : en:Chapter 08
01:08:32.734         : en:Chapter 09
01:18:44.887         : en:Chapter 10
01:26:20.258         : en:Chapter 11
01:46:34.430         : en:Chapter 12





                                                                  
                                                                                                                                                                                                                                                                                 
86441e1250fc3524fe3c2cf5926f2348.torrent (25.99 KB, 下载次数: 0)

回复

使用道具 举报

小黑屋|百度云资源论坛

本网站所有资源来自网络,如无意中侵犯了您的权益,请发邮件至 [email protected],立即清除相关链接

GMT+8, 2024-7-21 01:41 , Processed in 0.082497 second(s), 26 queries .

Powered by Discuz! X3.2

© 2001-2013 Comsenz Inc.

快速回复 返回顶部 返回列表