百度云资源论坛

 找回密码
 立即注册
搜索

龍爭虎鬥精武魂 The.Black.Dragons.Revenge.1975.720p.BluRay.x264-GUACAMOLE 5.87GB ...

[复制链接]
admin 发表于 2021-11-27 22:41:15 | 显示全部楼层 |阅读模式
龍爭虎鬥精武魂 The.Black.Dragons.Revenge.1975.720p.BluRay.x264-GUACAMOLE 5.87GB                                                                                                                                                                              -->
帖子完整标题:龍爭虎鬥精武魂 The.Black.Dragons.Revenge.1975.720p.BluRay.x264-GUACAMOLE 5.87GB





◎译  名 龙争虎斗精武魂/Death of Bruce Lee/Revenge of the Black Dragon/The Black Dragon Revenges the Death of Bruce Lee/The Black Dragon's Revenge
◎片  名 龍爭虎鬥精武魂
◎年  代 1975
◎产  地 中国香港,美国
◎类  别 剧情 / 动作
◎语  言 汉语普通话,英语
◎上映日期 1975
◎豆瓣评分 /10 from 0 users
◎ 
◎片  长 UK: 84 分钟
◎导  演 鲁俊谷 Chin-Ku Lu
◎主  演 罗范恩 Ron Van Clief

◎标  签 邵氏 | 动作 | 1975 | 香港电影 | 香港 | 鲁俊谷 | 功夫 | 中国香港

◎简  介

  讲述了中国功夫高手李小龙暴毙于香港,三藩市一位富商严先生特以十万元聘请黑人拳师到港调查。调查途中,他们发现有人暗中跟踪伏击,而同行拍挡亦被杀害。在此时严先生突然回港,终止调查计划
Video
ID             : 1
Format           : AVC
Format/Info          : Advanced Video Codec
Format profile         :
Format settings        : CABAC / 8 Ref Frames
Format settings, CABAC       : Yes
Format settings, Reference frames  : 8 frames
Codec ID           : V_MPEG4/ISO/AVC
Duration           : 1 h 30 min
Bit rate           : 8 907 kb/s
Width            : 1 280 pixels
Height           : 534 pixels
Display aspect ratio       : 2.40:1
Frame rate mode        : Constant
Frame rate           : 23.976 (24000/1001/189150) FPS
Color space          : YUV
Chroma subsampling       : 4:2:0
Bit depth          : 8 bits
Scan type          : Progressive
Bits/(Pixel*Frame)       : 0.544
Stream size          : 5.63 GiB (96%)
Writing library        : x264 core 164 r3075 66a5bc1
Encoding settings        : cabac=1 / ref=8 / deblock=1:-3:-3 / analyse=0x3:0x133 / me=umh / subme=9 / psy=1 / psy_rd=1.00:0.00 / mixed_ref=1 / me_range=16 / chroma_me=1 / trellis=2 / 8x8dct=1 / cqm=0 / deadzone=21,11 / fast_pskip=0 / chroma_qp_offset=-2 / threads=17 / lookahead_threads=1 / sliced_threads=0 / nr=0 / decimate=1 / interlaced=0 / bluray_compat=0 / constrained_intra=0 / bframes=3 / b_pyramid=2 / b_adapt=2 / b_bias=0 / direct=3 / weightb=1 / open_gop=0 / weightp=2 / keyint=250 / keyint_min=23 / scenecut=40 / intra_refresh=0 / rc_lookahead=60 / rc=crf / mbtree=1 / crf=18.5 / qcomp=0.60 / qpmin=0 / qpmax=69 / qpstep=4 / ip_ratio=1.40 / aq=3:0.60
Default            : Yes
Forced           : No
Color range          : Limited
Matrix coefficients        : BT.709

Audio
ID             : 2
Format           : AC-3
Format/Info          : Audio Coding 3
Commercial name        : Dolby Digital
Codec ID           : A_AC3
Duration           : 1 h 30 min
Bit rate mode          : Constant
Bit rate           : 384 kb/s
Channel(s)           : 2 channels
Channel layout         : L R
Sampling rate          : 48.0 kHz
Frame rate           : 31.250 FPS (1536 SPF)
Compression mode         : Lossy
Stream size          : 248 MiB (4%)
Language           : English
Service kind         : Complete Main
Default            : Yes
Forced           : No

Menu
00:00:00.000         : en:00:00:00.000
00:07:21.858         : en:00:07:21.858
00:15:46.529         : en:00:15:46.529
00:23:40.210         : en:00:23:40.210
00:32:02.254         : en:00:32:02.254
00:37:28.747         : en:00:37:28.747
00:47:18.044         : en:00:47:18.044
00:54:54.750         : en:00:54:54.750
01:02:50.392         : en:01:02:50.392
01:11:17.982         : en:01:11:17.982
01:16:56.779         : en:01:16:56.779
01:23:17.075         : en:01:23:17.075






                                                                  
                                                                                                                                                                                                                                                                                 
36cd409b2578c662afe41dff52e8d045.torrent (15.39 KB, 下载次数: 0)

回复

使用道具 举报

小黑屋|百度云资源论坛

本网站所有资源来自网络,如无意中侵犯了您的权益,请发邮件至 [email protected],立即清除相关链接

GMT+8, 2024-7-21 00:47 , Processed in 0.098183 second(s), 26 queries .

Powered by Discuz! X3.2

© 2001-2013 Comsenz Inc.

快速回复 返回顶部 返回列表