百度云资源论坛

 找回密码
 立即注册
搜索

极道公主 Yakuza.Princess.2021.720p.BluRay.x264-PiGNUS 4.68GB

[复制链接]
admin 发表于 2021-11-25 19:09:10 | 显示全部楼层 |阅读模式
极道公主 Yakuza.Princess.2021.720p.BluRay.x264-PiGNUS 4.68GB                                                                                                                                                                              -->
帖子完整标题:极道公主 Yakuza.Princess.2021.720p.BluRay.x264-PiGNUS 4.68GB




◎译  名 极道公主
◎片  名 Yakuza Princess
◎年  代 2021
◎产  地 巴西
◎类  别 惊悚
◎语  言 英语
◎上映日期 2021-09-03(美国)
◎豆瓣评分 4.2/10 from 266 users
◎ 
◎片  长 111分钟
◎导  演 威森特·阿莫里姆 Vicente Amorim
◎编  剧 威森特·阿莫里姆 Vicente Amorim
◎主  演 乔纳森·莱斯·梅耶斯 Jonathan Rhys Meyers
     伊原刚志 Tsuyoshi Ihara
     肯尼·梁 Kenny Leu
     尾崎英二郎 Eijiro Ozaki
     查尔斯·帕拉文蒂 Charles Paraventi
     尼可拉斯·特列维扬诺 Nicolas Trevijano

◎标  签 动作 | 巴西 | 2021 | 黑帮 | 暴力 | 惊悚 | 巴西电影 | 剧情

◎简  介

  围绕巴西圣保罗最大的日本侨民社区展开,讲述了孤儿Akemi(Masumi饰)发现自己是黑道犯罪集团一半的继承人,她在与一个失忆的陌生人(莱斯·梅耶斯饰)结成联盟后,Akemi相信是一把古老的剑将他们两人的命运捆绑在一起,她向想要她死的另一半犯罪集团发动了战争。
Video
ID             : 1
Format           : AVC
Format/Info          : Advanced Video Codec
Format profile         :
Format settings        : CABAC / 8 Ref Frames
Format settings, CABAC       : Yes
Format settings, Reference frames  : 8 frames
Codec ID           : V_MPEG4/ISO/AVC
Duration           : 1 h 51 min
Bit rate           : 5 361 kb/s
Width            : 1 280 pixels
Height           : 536 pixels
Display aspect ratio       : 2.40:1
Frame rate mode        : Constant
Frame rate           : 23.976 (24000/1001/189150) FPS
Color space          : YUV
Chroma subsampling       : 4:2:0
Bit depth          : 8 bits
Scan type          : Progressive
Bits/(Pixel*Frame)       : 0.326
Stream size          : 4.17 GiB (89%)
Writing library        : x264 core 164 r3075 66a5bc1
Encoding settings        : cabac=1 / ref=8 / deblock=1:-3:-3 / analyse=0x3:0x133 / me=umh / subme=9 / psy=1 / psy_rd=1.00:0.00 / mixed_ref=1 / me_range=16 / chroma_me=1 / trellis=2 / 8x8dct=1 / cqm=0 / deadzone=21,11 / fast_pskip=1 / chroma_qp_offset=-2 / threads=17 / lookahead_threads=1 / sliced_threads=0 / nr=0 / decimate=1 / interlaced=0 / bluray_compat=0 / constrained_intra=0 / bframes=3 / b_pyramid=2 / b_adapt=2 / b_bias=0 / direct=3 / weightb=1 / open_gop=0 / weightp=2 / keyint=250 / keyint_min=23 / scenecut=40 / intra_refresh=0 / rc_lookahead=60 / rc=crf / mbtree=1 / crf=15.0 / qcomp=0.60 / qpmin=0 / qpmax=69 / qpstep=4 / ip_ratio=1.40 / aq=1:1.00
Default            : Yes
Forced           : No

Audio
ID             : 2
Format           : AC-3
Format/Info          : Audio Coding 3
Commercial name        : Dolby Digital
Codec ID           : A_AC3
Duration           : 1 h 51 min
Bit rate mode          : Constant
Bit rate           : 640 kb/s
Channel(s)           : 6 channels
Channel layout         : L R C LFE Ls Rs
Sampling rate          : 48.0 kHz
Frame rate           : 31.250 FPS (1536 SPF)
Compression mode         : Lossy
Stream size          : 509 MiB (11%)
Language           : English
Service kind         : Complete Main
Default            : Yes
Forced           : No

Text #1
ID             : 3
Format           : UTF-8
Codec ID           : S_TEXT/UTF8
Codec ID/Info          : UTF-8 Plain Text
Duration           : 1 h 28 min
Bit rate           : 8 b/s
Count of elements        : 221
Stream size          : 5.66 KiB (0%)
Title            : English Forced
Language           : English
Default            : Yes
Forced           : Yes

Text #2
ID             : 4
Format           : PGS
Muxing mode          : zlib
Codec ID           : S_HDMV/PGS
Codec ID/Info          : Picture based subtitle format used on BDs/HD-DVDs
Duration           : 1 h 28 min
Bit rate           : 10.2 kb/s
Count of elements        : 442
Stream size          : 6.41 MiB (0%)
Title            : English
Language           : English
Default            : No
Forced           : No

Text #3
ID             : 5
Format           : PGS
Muxing mode          : zlib
Codec ID           : S_HDMV/PGS
Codec ID/Info          : Picture based subtitle format used on BDs/HD-DVDs
Duration           : 1 h 44 min
Bit rate           : 34.8 kb/s
Count of elements        : 1716
Stream size          : 26.1 MiB (1%)
Title            : English SDH
Language           : English
Default            : No
Forced           : No

Menu
00:00:00.000         : en:Chapter 01
00:07:52.263         : en:Chapter 02
00:13:39.819         : en:Chapter 03
00:20:18.217         : en:Chapter 04
00:30:24.823         : en:Chapter 05
00:39:51.389         : en:Chapter 06
00:45:36.734         : en:Chapter 07
00:53:15.192         : en:Chapter 08
01:02:26.743         : en:Chapter 09
01:12:37.353         : en:Chapter 10
01:19:56.792         : en:Chapter 11
01:27:04.219         : en:Chapter 12
01:34:23.658         : en:Chapter 13
01:43:29.662         : en:Chapter 14
01:51:14.251         : en:Chapter 15





                                                                  
                                                                                                                                                                                                                                                                                 
78cf96c2388ba4d8818b0ba35f0d8442.torrent (24.12 KB, 下载次数: 0)

回复

使用道具 举报

小黑屋|百度云资源论坛

本网站所有资源来自网络,如无意中侵犯了您的权益,请发邮件至 [email protected],立即清除相关链接

GMT+8, 2024-7-21 00:15 , Processed in 0.105145 second(s), 30 queries .

Powered by Discuz! X3.2

© 2001-2013 Comsenz Inc.

快速回复 返回顶部 返回列表