百度云资源论坛

 找回密码
 立即注册
搜索

囊肿 Cyst.2020.720p.BluRay.x264-GUACAMOLE 2.44GB

[复制链接]
admin 发表于 2021-11-24 19:00:36 | 显示全部楼层 |阅读模式
囊肿 Cyst.2020.720p.BluRay.x264-GUACAMOLE 2.44GB                                                                                                                                                                              -->
帖子完整标题:囊肿 Cyst.2020.720p.BluRay.x264-GUACAMOLE 2.44GB


        



◎译  名 囊肿
◎片  名 CYST
◎年  代 2020
◎产  地 美国
◎类  别 科幻 / 恐怖
◎语  言 英语
◎上映日期 2020-09-24(奇幻电影节)
◎豆瓣评分 /10 from 0 users
◎ 
◎主  演 伊娃·哈伯曼 Eva Habermann
     格雷戈·赛斯特罗 Greg Sestero
     杰森·道格拉斯 Jason Douglas
     吉因·琼斯 Gene Jones
     乔治·哈迪 George Hardy
     Francesca Santoro Francesca Santoro
     Darren Ewing Darren Ewing

◎标  签 恐怖 | Cult | 美国 | 科幻 | 2021 | Horror | NewCast | 2020

◎简  介

  CYST is an old school monster movie in which an enthusiastic plastic surgeon will stop at nothing to patent his latest cyst-removal machine. What started out as Patricia (Eva Habermann) the nurse’s last day turns into a battle for survival when the doctor’s machine inadvertently turns a patient’s tumour into a cyst-monster that terrorizes the office.
Video
ID             : 1
Format           : AVC
Format/Info          : Advanced Video Codec
Format profile         :
Format settings        : CABAC / 8 Ref Frames
Format settings, CABAC       : Yes
Format settings, Reference frames  : 8 frames
Codec ID           : V_MPEG4/ISO/AVC
Duration           : 1 h 13 min
Bit rate           : 4 102 kb/s
Width            : 1 280 pixels
Height           : 538 pixels
Display aspect ratio       : 2.40:1
Frame rate mode        : Constant
Frame rate           : 23.976 (24000/1001/189150) FPS
Color space          : YUV
Chroma subsampling       : 4:2:0
Bit depth          : 8 bits
Scan type          : Progressive
Bits/(Pixel*Frame)       : 0.248
Stream size          : 2.10 GiB (86%)
Writing library        : x264 core 164 r3075 66a5bc1
Encoding settings        : cabac=1 / ref=8 / deblock=1:-3:-3 / analyse=0x3:0x133 / me=umh / subme=9 / psy=1 / psy_rd=1.00:0.00 / mixed_ref=1 / me_range=16 / chroma_me=1 / trellis=2 / 8x8dct=1 / cqm=0 / deadzone=21,11 / fast_pskip=0 / chroma_qp_offset=-2 / threads=17 / lookahead_threads=1 / sliced_threads=0 / nr=0 / decimate=1 / interlaced=0 / bluray_compat=0 / constrained_intra=0 / bframes=3 / b_pyramid=2 / b_adapt=2 / b_bias=0 / direct=3 / weightb=1 / open_gop=0 / weightp=2 / keyint=250 / keyint_min=23 / scenecut=40 / intra_refresh=0 / rc_lookahead=60 / rc=crf / mbtree=1 / crf=17.0 / qcomp=0.60 / qpmin=0 / qpmax=69 / qpstep=4 / ip_ratio=1.40 / aq=3:1.00
Default            : Yes
Forced           : No
Color range          : Limited
Matrix coefficients        : BT.709

Audio
ID             : 2
Format           : AC-3
Format/Info          : Audio Coding 3
Commercial name        : Dolby Digital
Codec ID           : A_AC3
Duration           : 1 h 13 min
Bit rate mode          : Constant
Bit rate           : 640 kb/s
Channel(s)           : 6 channels
Channel layout         : L R C LFE Ls Rs
Sampling rate          : 48.0 kHz
Frame rate           : 31.250 FPS (1536 SPF)
Compression mode         : Lossy
Stream size          : 336 MiB (13%)
Language           : English
Service kind         : Complete Main
Default            : Yes
Forced           : No

Text #1
ID             : 3
Format           : PGS
Muxing mode          : zlib
Codec ID           : S_HDMV/PGS
Codec ID/Info          : Picture based subtitle format used on BDs/HD-DVDs
Duration           : 1 h 10 min
Bit rate           : 21.0 kb/s
Count of elements        : 1441
Stream size          : 10.6 MiB (0%)
Language           : English
Default            : No
Forced           : No

Text #2
ID             : 4
Format           : PGS
Muxing mode          : zlib
Codec ID           : S_HDMV/PGS
Codec ID/Info          : Picture based subtitle format used on BDs/HD-DVDs
Duration           : 1 h 10 min
Bit rate           : 20.1 kb/s
Count of elements        : 1284
Stream size          : 10.2 MiB (0%)
Language           : German
Default            : No
Forced           : No

Menu
00:00:00.000         : en:00:00:00.000
00:09:00.039         : en:00:09:00.039
00:17:41.310         : en:00:17:41.310
00:26:25.125         : en:00:26:25.125
00:35:22.162         : en:00:35:22.162
00:45:07.121         : en:00:45:07.121
00:53:40.300         : en:00:53:40.300
01:03:35.228         : en:01:03:35.228
01:08:24.892         : en:01:08:24.892
        






                                                                  
                                                                                                                                                                                                                                                                                 
355d8b3b1a3bd8b2aff8f37aa604b789.torrent (25.04 KB, 下载次数: 0)

回复

使用道具 举报

小黑屋|百度云资源论坛

本网站所有资源来自网络,如无意中侵犯了您的权益,请发邮件至 [email protected],立即清除相关链接

GMT+8, 2024-7-21 00:57 , Processed in 0.074746 second(s), 26 queries .

Powered by Discuz! X3.2

© 2001-2013 Comsenz Inc.

快速回复 返回顶部 返回列表