百度云资源论坛

 找回密码
 立即注册
搜索

吃掉有钱人 Eat.The.Rich.1987.720p.BluRay.x264-GETiT 2.71GB

[复制链接]
admin 发表于 2021-11-23 18:44:33 | 显示全部楼层 |阅读模式
吃掉有钱人 Eat.The.Rich.1987.720p.BluRay.x264-GETiT 2.71GB                                                                                                                                                                              -->
帖子完整标题:吃掉有钱人 Eat.The.Rich.1987.720p.BluRay.x264-GETiT 2.71GB





◎译  名 吃掉有钱人
◎片  名 Eat the Rich
◎年  代 1987
◎产  地 英国
◎类  别 喜剧 / 动作 / 犯罪
◎语  言 英语
◎上映日期 1988-04-22
◎豆瓣评分 /10 from 0 users
◎ 
◎片  长 90 分钟
◎导  演 彼得·理查德森 Peter Richardson
◎编  剧 彼得·理查德森 Peter Richardson
◎主  演 凯文·艾伦 Kevin Allen
     罗纳德·艾伦 Ronald Allen
     里克·梅奥尔 Rik Mayall
     珍妮弗·桑德斯 Jennifer Saunders
     唐·弗兰奇 Dawn French
     亚德里安·埃德蒙松 Adrian Edmondson
     保罗·麦卡特尼 Paul McCartney
     Steve Walsh Steve Walsh
     凯瑟琳·哈里森 Cathryn Harrison
     Jools Holland Jools Holland
     Claire King Claire King
     Debbie Linden Debbie Linden
     Lemmy Lemmy
     苏·劳埃德 Sue Lloyd
     克里斯托弗·马尔科姆 Christopher Malcolm
     Al Pillay Al Pillay
     德伦·内斯比特 Derren Nesbitt
     尼尔·迪克森 Neil Dickson
     Nosher Powell Nosher Powell
     马里卡·里维拉 Marika Rivera
     Sandie Shaw Sandie Shaw
     Daniel Peacock Daniel Peacock
     鲁珀特·范西塔特 Rupert Vansittart
     凯露.斯塔克 Koo Stark
     Fran Fullenwider Fran Fullenwider
     桑德拉·多内 Sandra Dorne
     谢恩·麦高恩 Shane MacGowan
     尼尔·坎宁安 Neil Cunningham
     凯西·伯克 Kathy Burke
     彼得·理查德森 Peter Richardson
     罗彼·考特拉尼 Robbie Coltrane
     米兰达·理查森 Miranda Richardson
     奈格尔·派纳 Nigel Planer
     比尔·怀曼 Bill Wyman
     凯特琳·卡特利吉 Katrin Cartlidge
     Miles A. Copeland III Miles A. Copeland III
     Hugh Cornwell Hugh Cornwell

◎标  签 犯罪 | 喜剧 | 英国 | UKIreland | UK | TV | Rik_Mayall | Ade_Edmondson

◎简  介

  Alex is a disgruntled waitress at a snobby exclusive restaurant who falls on hard times. Forced to deal with the contempt and disgust of the upper class, Alex & cohorts attempt to go on a rampage. Meanwhile, General Karprov and Spider plot to involve the inept anarchists into their plans to derail the prime-minister-to-be's campaign. Written by Jeff Mercer
Video
ID             : 1
Format           : AVC
Format/Info          : Advanced Video Codec
Format profile         :
Format settings        : CABAC / 8 Ref Frames
Format settings, CABAC       : Yes
Format settings, Reference frames  : 8 frames
Codec ID           : V_MPEG4/ISO/AVC
Duration           : 1 h 28 min
Bit rate           : 3 732 kb/s
Width            : 1 280 pixels
Height           : 720 pixels
Display aspect ratio       : 16:9
Frame rate mode        : Constant
Frame rate           : 23.976 (24000/1001/189150) FPS
Color space          : YUV
Chroma subsampling       : 4:2:0
Bit depth          : 8 bits
Scan type          : Progressive
Bits/(Pixel*Frame)       : 0.169
Stream size          : 2.32 GiB (86%)
Writing library        : x264 core 164 r3075 66a5bc1
Encoding settings        : cabac=1 / ref=8 / deblock=1:-3:-3 / analyse=0x3:0x133 / me=umh / subme=9 / psy=1 / psy_rd=1.00:0.00 / mixed_ref=1 / me_range=16 / chroma_me=1 / trellis=2 / 8x8dct=1 / cqm=0 / deadzone=21,11 / fast_pskip=0 / chroma_qp_offset=-2 / threads=22 / lookahead_threads=1 / sliced_threads=0 / nr=0 / decimate=1 / interlaced=0 / bluray_compat=0 / constrained_intra=0 / bframes=3 / b_pyramid=2 / b_adapt=2 / b_bias=0 / direct=3 / weightb=1 / open_gop=0 / weightp=2 / keyint=250 / keyint_min=23 / scenecut=40 / intra_refresh=0 / rc_lookahead=60 / rc=crf / mbtree=1 / crf=17.0 / qcomp=0.60 / qpmin=0 / qpmax=69 / qpstep=4 / ip_ratio=1.40 / aq=3:0.60
Default            : Yes
Forced           : No
Color range          : Limited
Matrix coefficients        : BT.709

Audio
ID             : 2
Format           : FLAC
Format/Info          : Free Lossless Audio Codec
Codec ID           : A_FLAC
Duration           : 1 h 28 min
Bit rate mode          : Variable
Bit rate           : 600 kb/s
Channel(s)           : 2 channels
Channel layout         : L R
Sampling rate          : 48.0 kHz
Frame rate           : 11.719 FPS (4096 SPF)
Bit depth          : 16 bits
Compression mode         : Lossless
Stream size          : 381 MiB (14%)
Writing library        : libFLAC 1.2.1 (UTC 2007-09-17)
Language           : English
Default            : Yes
Forced           : No

Text #1
ID             : 3
Format           : PGS
Muxing mode          : zlib
Codec ID           : S_HDMV/PGS
Codec ID/Info          : Picture based subtitle format used on BDs/HD-DVDs
Duration           : 1 h 3 min
Bit rate           : 578 b/s
Count of elements        : 36
Stream size          : 270 KiB (0%)
Language           : German
Default            : No
Forced           : No

Text #2
ID             : 4
Format           : PGS
Muxing mode          : zlib
Codec ID           : S_HDMV/PGS
Codec ID/Info          : Picture based subtitle format used on BDs/HD-DVDs
Duration           : 1 h 25 min
Bit rate           : 25.3 kb/s
Count of elements        : 1844
Stream size          : 15.5 MiB (1%)
Language           : German
Default            : No
Forced           : No

Menu
00:00:00.000         : en:00:00:00.000
00:11:28.187         : en:00:11:28.187
00:17:34.762         : en:00:17:34.762
00:23:17.813         : en:00:23:17.813
00:31:22.047         : en:00:31:22.047
00:38:05.074         : en:00:38:05.074
00:46:20.444         : en:00:46:20.444
00:52:24.641         : en:00:52:24.641
01:01:27.309         : en:01:01:27.309
01:08:06.666         : en:01:08:06.666
01:19:34.436         : en:01:19:34.436
01:27:31.830         : en:01:27:31.830






                                                                  
                                                                                                                                                                                                                                                                                 
d1d068a14b1b84eb9b0832f4da9290ff.torrent (27.77 KB, 下载次数: 0)

回复

使用道具 举报

小黑屋|百度云资源论坛

本网站所有资源来自网络,如无意中侵犯了您的权益,请发邮件至 [email protected],立即清除相关链接

GMT+8, 2024-7-21 00:53 , Processed in 0.088269 second(s), 26 queries .

Powered by Discuz! X3.2

© 2001-2013 Comsenz Inc.

快速回复 返回顶部 返回列表