百度云资源论坛

 找回密码
 立即注册
搜索

人猿泰山在曼哈顿/人猿泰山 Tarzan.in.Manhattan.1989.720p.BluRay.x264-FREEMAN 5.83 ...

[复制链接]
admin 发表于 2021-11-23 18:44:33 | 显示全部楼层 |阅读模式
人猿泰山在曼哈顿/人猿泰山 Tarzan.in.Manhattan.1989.720p.BluRay.x264-FREEMAN 5.83GB                                                                                                                                                                              -->
帖子完整标题:人猿泰山在曼哈顿/人猿泰山 Tarzan.in.Manhattan.1989.720p.BluRay.x264-FREEMAN 5.83GB





◎译  名 人猿泰山在曼哈顿/人猿泰山/曼哈顿的泰山/泰山复仇记
◎片  名 Tarzan in Manhattan
◎年  代 1989
◎产  地 美国
◎类  别 动作 / 冒险
◎语  言 英语
◎上映日期 1989-04-15
◎豆瓣评分 6.8/10 from 326 users
◎ 
◎片  长 94分钟
◎导  演 迈克尔·舒尔茨 Michael Schultz
◎编  剧 埃德加·赖斯·巴勒斯 Edgar Rice Burroughs / 安娜·桑德 Anna Sandor
◎主  演 Joel Carlson Joel Carlson

◎标  签 人猿泰山在曼哈顿 | 美国电影 | 美国 | 童年 | 泰山 | 1989 | 正大剧场 | 动作

◎简  介

  一只母猩猩被犯罪集团的人打死,并被抢走了几只小猩猩。人猿泰山为了救回小猩猩根据罪犯留在森林中的一个火柴盒上的字母来到曼哈顿,结识了一位女出租车司机和她当警官的父亲。他们根据种种线索终于找到了犯罪集团的驻地……
Video
ID             : 1
Format           : AVC
Format/Info          : Advanced Video Codec
Format profile         :
Format settings        : CABAC / 8 Ref Frames
Format settings, CABAC       : Yes
Format settings, Reference frames  : 8 frames
Codec ID           : V_MPEG4/ISO/AVC
Duration           : 1 h 33 min
Bit rate           : 8 503 kb/s
Width            : 1 280 pixels
Height           : 720 pixels
Display aspect ratio       : 16:9
Frame rate mode        : Constant
Frame rate           : 23.976 (24000/1001/189150) FPS
Color space          : YUV
Chroma subsampling       : 4:2:0
Bit depth          : 8 bits
Scan type          : Progressive
Bits/(Pixel*Frame)       : 0.385
Stream size          : 5.58 GiB (96%)
Writing library        : x264 core 164 r3075 66a5bc1
Encoding settings        : cabac=1 / ref=8 / deblock=1:-3:-3 / analyse=0x3:0x133 / me=umh / subme=9 / psy=1 / psy_rd=1.00:0.00 / mixed_ref=1 / me_range=16 / chroma_me=1 / trellis=2 / 8x8dct=1 / cqm=0 / deadzone=21,11 / fast_pskip=0 / chroma_qp_offset=-2 / threads=22 / lookahead_threads=1 / sliced_threads=0 / nr=0 / decimate=1 / interlaced=0 / bluray_compat=0 / constrained_intra=0 / bframes=3 / b_pyramid=2 / b_adapt=2 / b_bias=0 / direct=3 / weightb=1 / open_gop=0 / weightp=2 / keyint=250 / keyint_min=23 / scenecut=40 / intra_refresh=0 / rc_lookahead=60 / rc=crf / mbtree=1 / crf=17.0 / qcomp=0.60 / qpmin=0 / qpmax=69 / qpstep=4 / ip_ratio=1.40 / aq=3:0.60
Default            : Yes
Forced           : No
Color range          : Limited
Matrix coefficients        : BT.709

Audio
ID             : 2
Format           : AC-3
Format/Info          : Audio Coding 3
Commercial name        : Dolby Digital
Codec ID           : A_AC3
Duration           : 1 h 33 min
Bit rate mode          : Constant
Bit rate           : 384 kb/s
Channel(s)           : 2 channels
Channel layout         : L R
Sampling rate          : 48.0 kHz
Frame rate           : 31.250 FPS (1536 SPF)
Compression mode         : Lossy
Stream size          : 258 MiB (4%)
Language           : English
Service kind         : Complete Main
Default            : No
Forced           : No

Menu
00:00:00.000         : en:00:00:00.000
00:09:08.798         : en:00:09:08.798
00:15:47.363         : en:00:15:47.363
00:24:15.955         : en:00:24:15.955
00:33:04.858         : en:00:33:04.858
00:39:32.620         : en:00:39:32.620
00:46:48.180         : en:00:46:48.180
00:56:04.695         : en:00:56:04.695
01:02:44.719         : en:01:02:44.719
01:12:00.858         : en:01:12:00.858
01:21:30.761         : en:01:21:30.761
01:28:28.887         : en:01:28:28.887






                                                                  
                                                                                                                                                                                                                                                                                 
fb0173a14da16fe87bfc69cbc8aee2b6.torrent (15.28 KB, 下载次数: 0)

回复

使用道具 举报

小黑屋|百度云资源论坛

本网站所有资源来自网络,如无意中侵犯了您的权益,请发邮件至 [email protected],立即清除相关链接

GMT+8, 2024-7-21 01:16 , Processed in 0.143327 second(s), 30 queries .

Powered by Discuz! X3.2

© 2001-2013 Comsenz Inc.

快速回复 返回顶部 返回列表