百度云资源论坛

 找回密码
 立即注册
搜索

[BD-4K] 尤巴县突发新闻/尤巴猛料 Breaking.News.in.Yuba.County.2021.2160p.WE...

[复制链接]
百度云资源 发表于 2021-2-14 10:21:33 | 显示全部楼层 |阅读模式
-->
帖子完整标题:尤巴县突发新闻/尤巴猛料 Breaking.News.in.Yuba.County.2021.2160p.WEB.H265-NAISU 10.31GB


[/url]

◎译  名 尤巴县突发新闻/尤巴猛料
◎片  名 Breaking News In Yuba County
◎年  代 2021
◎产  地 英国,美国
◎类  别 剧情 / 喜剧 / 惊悚 / 犯罪
◎语  言 英语
◎上映日期 2021-02-12(美国网络)
◎IMDb评分  7.1/10 from 41 users
◎  
◎豆瓣评分 /10 from 0 users
◎ 
◎导  演 泰特·泰勒 Tate Taylor
◎编  剧 阿曼达·伊多科 Amanda Idoko
◎主  演 艾莉森·珍妮 Allison Janney
       米拉·库尼斯 Mila Kunis
       奥卡菲娜 Awkwafina
       旺达·塞克丝 Wanda Sykes
       马修·莫迪恩 Matthew Modine
       萨米拉·威利 Samira Wiley
       艾伦·巴金 Ellen Barkin
       朱丽叶特·刘易斯 Juliette Lewis
       雷吉娜·赫尔 Regina Hall
       吉米·辛普森 Jimmi Simpson
       克里斯·劳威尔 Chris Lowell
       小克利夫顿·克林斯 Clifton Collins Jr.
       布里奇特·埃弗里特 Bridget Everett
       马塞拉·伦茨·波普 Marcella Lentz-Pope
       多米尼克·伯吉斯 Dominic Burgess
       露西·浮士德 Lucy Faust
       申庚 Keong Sim
       西尔维娅·格雷丝·克里姆 Sylvia Grace Crim
       迪内·泰勒 Deneen Tyler
       T·C·马特恩 T.C. Matherne
       彼得·詹梅斯 Peter Jaymes Jr.
       劳拉·邓恩 Laura Dern

◎标  签 美国 | 剧情 | 电影 | 美国电影 | 2021 | 黑色幽默 | 萨米拉·威利 | 米拉·库尼斯

◎简  介

  苏·宝特姆斯(珍妮饰)将丈夫与一个女子捉奸在床,却没成想,她的丈夫被吓到心脏病发离世。苏随即把丈夫尸身埋掉。老公的消失,倒是让苏的名望、地位日益增长。但是苏很快发现,她自己不仅要躲避警察和罪犯,更要对她那迫切想要获得猛料的新闻主播妹妹南希三缄其口。
Video
ID                                       : 1
Format                                   : HEVC
Format/Info                              : High Efficiency Video Coding
Format profile                           : @Main
Codec ID                                 : V_MPEGH/ISO/HEVC
Duration                                 : 1 h 36 min
Bit rate                                 : 14.6 Mb/s
Width                                    : 3 840 pixels
Height                                   : 2 160 pixels
Display aspect ratio                     : 16:9
Frame rate mode                          : Constant
Frame rate                               : 23.976 (24000/1001/189150) FPS
Color space                              : YUV
Chroma subsampling                       : 4:2:0
Bit depth                                : 8 bits
Bits/(Pixel*Frame)                       : 0.073
Stream size                              : 9.82 GiB (96%)
Default                                  : Yes
Forced                                   : No
Color range                              : Limited
Color primaries                          : BT.709
Transfer characteristics                 : BT.709
Matrix coefficients                      : BT.709

Audio
ID                                       : 2
Format                                   : E-AC-3
Format/Info                              : Enhanced AC-3
Commercial name                          : Dolby Digital Plus
Codec ID                                 : A_EAC3
Duration                                 : 1 h 36 min
Bit rate mode                            : Constant
Bit rate                                 : 256 kb/s
Channel(s)                               : 6 channels
Channel layout                           : L R C LFE Ls Rs
Sampling rate                            : 48.0 kHz
Frame rate                               : 31.250 FPS (1536 SPF)
Compression mode                         : Lossy
Stream size                              : 177 MiB (2%)
Language                                 : English
Service kind                             : Complete Main
Default                                  : Yes
Forced                                   : No

Text
ID                                       : 3
Format                                   : UTF-8
Codec ID                                 : S_TEXT/UTF8
Codec ID/Info                            : UTF-8 Plain Text
Language                                 : English
Default                                  : No
Forced                                   : No
[/url][/url][/url]



                                                                                                                                                                                                        
                                                                                                                                                                                                                                                                                                                                                                                                                                                                                                                                                                                                                                                                                                                                                                                                                                                        
0b114b81fc20e392ebfcb2dedd0f2327.zip (52.29 KB, 下载次数: 0)

回复

使用道具 举报

小黑屋|百度云资源论坛 |网站地图

本网站所有资源来自网络,如无意中侵犯了您的权益,请发邮件至 [email protected],立即清除相关链接

GMT+8, 2021-3-8 03:28 , Processed in 0.108050 second(s), 23 queries .

Powered by Discuz! X3.2

© 2001-2013 Comsenz Inc.

快速回复 返回顶部 返回列表