百度云资源论坛

 找回密码
 立即注册
搜索

埃德蒙 Cyrano.My.Love.2018.FRENCH.1080p.BluRay.x264.DTS-DON 13.82GB

[复制链接]
百度云资源 发表于 2021-1-1 11:08:15 | 显示全部楼层 |阅读模式
-->
帖子完整标题:埃德蒙 Cyrano.My.Love.2018.FRENCH.1080p.BluRay.x264.DTS-DON 13.82GB




◎译  名 埃德蒙/Cyrano, My Love/大鼻子小情圣(港)/巴黎小情圣(台)
◎片  名 Edmond
◎年  代 2018
◎产  地 法国,比利时
◎类  别 剧情 / 喜剧
◎语  言 法语,俄语
◎上映日期 2018-08-22(法国昂古莱姆电影节) / 2019-01-09(法国)
◎IMDb评分  7.4/10 from 2222 users
◎  
◎豆瓣评分 7.8/10 from 1685 users
◎ 
◎片  长 110分钟
◎导  演 亚力克西斯·马沙利克 Alexis·Michalik
◎编  剧 亚力克西斯·马沙利克 Alexis·Michalik
◎主  演 托马·索利韦尔 Thomas Solivéres
       奥利维埃·古尔梅 Olivier Gourmet
       玛蒂尔德·瑟妮 Mathilde Seigner
       汤姆·里布 Tom Leeb
       露西·布耶纳 Lucie Boujenah
       阿丽斯·德·朗克桑 Alice de Lencquesaing
       克莱门汀·塞拉里耶 Clémentine Célarié
       伊戈尔·戈特曼 Igor Gotesman
       多米尼克·皮侬 Dominique Pinon
       西蒙·阿布卡瑞安 Simon Abkarian
       马克·安德烈奥尼 Marc Andréoni
       吉恩-米歇尔·马提亚尔 Jean-Michel Martial
       亚力克西斯·马沙利克 Alexis·Michalik
       安托万·迪莱里 Antoine Duléry
       纪尧姆·布谢德 Guillaume Bouchède
       布兰丁·贝拉沃尔 Blandine Bellavoir
       利昂尔·阿贝兰斯基 Lionel Abelanski
       多米尼克·贝纳尔 Dominique Besnehard
       伯纳德·布兰卡恩 Bernard Blancan
       米沙·莱斯科特 Micha Lescot
       保罗·让森 Paul Jeanson

◎标  签 法国 | 喜剧 | 戏剧 | 剧情 | 爱情 | 幽默 | 2019 | 巴黎

◎简  介

  爱德蒙·罗斯丹(托马·索利韦尔 饰)快到三十岁,结婚生子后创作陷入低潮,江郎才尽的焦虑令这位巴黎十九世纪剧作家沮丧不堪。这时缪思却来了,一个令人心动的女孩宣示命运的嘲弄。他唯有通过协助好友追求女孩,同时把情事化为戏语,超越一切嫉妒与痴狂,终成就一代喜剧英雄、一齣边写边排的神作。今天无人不晓得《大鼻子情圣》,它的诞生原来更加传奇。戛纳影帝奥利维埃·古尔梅饰演戏剧泰斗哥格兰,努力催生旷世杰作,更为电影增添无上魅力。

◎获奖情况

  第45届法国凯撒电影奖 ?(2020)
  最佳服装(提名)
  最佳布景(提名)
Video
ID                                       : 1
Format                                   : AVC
Format/Info                              : Advanced Video Codec
Format profile                           :
Format settings                          : CABAC / 5 Ref Frames
Format settings, CABAC                   : Yes
Format settings, Reference frames        : 5 frames
Codec ID                                 : V_MPEG4/ISO/AVC
Duration                                 : 1 h 52 min
Bit rate                                 : 16.1 Mb/s
Width                                    : 1 920 pixels
Height                                   : 804 pixels
Display aspect ratio                     : 2.40:1
Frame rate mode                          : Constant
Frame rate                               : 24.000 FPS
Color space                              : YUV
Chroma subsampling                       : 4:2:0
Bit depth                                : 8 bits
Scan type                                : Progressive
Bits/(Pixel*Frame)                       : 0.435
Stream size                              : 12.6 GiB (91%)
Title                                    : Edmond 2018 1080p BluRay DTS x264-DON
Writing library                          : x264 core 161 r3027+53 tMod Elheym \'Set Me Free!\' Edition         
Encoding settings                        : cabac=1 / ref=5 / deblock=1:-3:-3 / analyse=0x3:0x133 / me=umh / subme=11 / psy=1 / fade_compensate=0.00 / psy_rd=0.90:0.00 / mixed_ref=1 / me_range=32 / chroma_me=1 / trellis=2 / 8x8dct=1 / cqm=0 / deadzone=21,11 / fast_pskip=0 / chroma_qp_offset=-2 / threads=6 / lookahead_threads=1 / sliced_threads=0 / nr=0 / decimate=1 / interlaced=0 / bluray_compat=0 / constrained_intra=0 / fgo=3 / bframes=10 / b_pyramid=2 / b_adapt=2 / b_bias=0 / direct=3 / weightb=1 / open_gop=0 / weightp=2 / keyint=240 / keyint_min=24 / scenecut=40 / intra_refresh=0 / rc_lookahead=60 / rc=crf / mbtree=0 / crf=15.6000 / qcomp=0.63 / qpmin=0:0:0 / qpmax=69:69:69 / qpstep=4 / vbv_maxrate=62500 / vbv_bufsize=78125 / crf_max=0.0 / nal_hrd=none / filler=0 / ip_ratio=1.25 / pb_ratio=1.11 / aq=3:0.70 / aq-sensitivity=10.00 / aq-factor=1.00:1.00:1.00 / aq2=0 / aq3=0
Language                                 : French
Default                                  : Yes
Forced                                   : Yes
Color range                              : Limited
Color primaries                          : BT.709
Transfer characteristics                 : BT.709
Matrix coefficients                      : BT.709

Audio
ID                                       : 2
Format                                   : DTS
Format/Info                              : Digital Theater Systems
Codec ID                                 : A_DTS
Duration                                 : 1 h 52 min
Bit rate mode                            : Constant
Bit rate                                 : 1 509 kb/s
Channel(s)                               : 6 channels
Channel layout                           : C L R Ls Rs LFE
Sampling rate                            : 48.0 kHz
Frame rate                               : 93.750 FPS (512 SPF)
Bit depth                                : 24 bits
Compression mode                         : Lossy
Stream size                              : 1.18 GiB (9%)
Language                                 : French
Default                                  : Yes
Forced                                   : No

Text #1
ID                                       : 3
Format                                   : UTF-8
Codec ID                                 : S_TEXT/UTF8
Codec ID/Info                            : UTF-8 Plain Text
Duration                                 : 1 h 50 min
Bit rate                                 : 67 b/s
Count of elements                        : 1948
Stream size                              : 55.3 KiB (0%)
Language                                 : English
Default                                  : No
Forced                                   : No

Text #2
ID                                       : 4
Format                                   : UTF-8
Codec ID                                 : S_TEXT/UTF8
Codec ID/Info                            : UTF-8 Plain Text
Duration                                 : 1 h 51 min
Bit rate                                 : 82 b/s
Count of elements                        : 2254
Stream size                              : 67.0 KiB (0%)
Language                                 : French
Default                                  : No
Forced                                   : No

Text #3
ID                                       : 5
Format                                   : UTF-8
Codec ID                                 : S_TEXT/UTF8
Codec ID/Info                            : UTF-8 Plain Text
Duration                                 : 1 h 52 min
Bit rate                                 : 87 b/s
Count of elements                        : 2406
Stream size                              : 71.9 KiB (0%)
Title                                    : SDH
Language                                 : French
Default                                  : No
Forced                                   : No

Text #4
ID                                       : 6
Format                                   : UTF-8
Codec ID                                 : S_TEXT/UTF8
Codec ID/Info                            : UTF-8 Plain Text
Duration                                 : 1 h 52 min
Bit rate                                 : 98 b/s
Count of elements                        : 3101
Stream size                              : 81.3 KiB (0%)
Title                                    : SDH Colored
Language                                 : French
Default                                  : No
Forced                                   : No

Text #5
ID                                       : 7
Format                                   : ASS
Codec ID                                 : S_TEXT/ASS
Codec ID/Info                            : Advanced Sub Station Alpha
Duration                                 : 1 h 52 min
Bit rate                                 : 333 b/s
Count of elements                        : 3458
Compression mode                         : Lossless
Stream size                              : 275 KiB (0%)
Title                                    : SDH Colored
Language                                 : French
Default                                  : No
Forced                                   : No

Menu
00:00:00.000                             : fr:Chapter 01
00:11:06.625                             : fr:Chapter 02
00:23:08.917                             : fr:Chapter 03
00:30:05.083                             : fr:Chapter 04
00:38:32.333                             : fr:Chapter 05
00:45:25.250                             : fr:Chapter 06
00:55:55.750                             : fr:Chapter 07
01:03:44.042                             : fr:Chapter 08
01:11:27.583                             : fr:Chapter 09
01:21:28.375                             : fr:Chapter 10
01:33:40.625                             : fr:Chapter 11
01:39:15.792                             : fr:Chapter 12




                                                                                                                                                                                                        
                                                                                                                                                                                                                                                                                                                                                                                                                                                                                                                                                                                                                                                                                                                                                                                                                                                        
75309f51c8782fe0d64757cca640993a.zip (69.76 KB, 下载次数: 0)

回复

使用道具 举报

小黑屋|百度云资源论坛 |网站地图

本网站所有资源来自网络,如无意中侵犯了您的权益,请发邮件至 [email protected],立即清除相关链接

GMT+8, 2021-1-27 11:33 , Processed in 0.098160 second(s), 23 queries .

Powered by Discuz! X3.2

© 2001-2013 Comsenz Inc.

快速回复 返回顶部 返回列表