百度云资源论坛

 找回密码
 立即注册
搜索

好莱坞奇谈 Blind.2019.1080p.BluRay.x264-GETiT 4.86GB

[复制链接]
百度云资源 发表于 2020-12-31 10:52:53 | 显示全部楼层 |阅读模式
-->
帖子完整标题:好莱坞奇谈 Blind.2019.1080p.BluRay.x264-GETiT 4.86GB




◎译  名 好莱坞奇谈
◎片  名 Blind
◎年  代 2019
◎产  地 美国
◎类  别 剧情 / 惊悚 / 恐怖
◎语  言 英语
◎上映日期 2019-07-10(Beverly Hills)
◎IMDb评分  4.4/10 from 605 users
◎  
◎豆瓣评分 /10 from 0 users
◎ 
◎片  长 88分钟
◎导  演 Marcel Walz
◎编  剧 Joe Knetter
◎主  演 卡罗琳·威廉姆斯 Caroline Williams
       谢里·戴维斯 Sheri Davis

◎标  签 惊悚 | 恐怖 | 美国电影 | 美国 | 女性 | 变蛋坏蛋蠢蛋 | 剧情 | 下

◎简  介

  Faye (Sarah French), a former actress that lost her vision due to botched laser eye surgery, struggles to put her life back together while living alone in her dream house in the Hollywood Hills. Supported by her friend Sophia (Caroline Williams), she starts opening up to Luke (Tyler Gallant), a personal trainer who is mute and can only communicate through his cell phone. When a masked stranger named Pretty Boy (Jed Rowen) shows up, Faye will realize that she isn't as alone as she thinks.
Video
ID                                       : 1
Format                                   : AVC
Format/Info                              : Advanced Video Codec
Format profile                           :
Format settings                          : CABAC / 5 Ref Frames
Format settings, CABAC                   : Yes
Format settings, Reference frames        : 5 frames
Codec ID                                 : V_MPEG4/ISO/AVC
Duration                                 : 1 h 28 min
Bit rate                                 : 4 091 kb/s
Width                                    : 1 920 pixels
Height                                   : 816 pixels
Display aspect ratio                     : 2.35:1
Frame rate mode                          : Constant
Frame rate                               : 23.976 (24000/1001/189150) FPS
Color space                              : YUV
Chroma subsampling                       : 4:2:0
Bit depth                                : 8 bits
Scan type                                : Progressive
Bits/(Pixel*Frame)                       : 0.109
Stream size                              : 2.53 GiB (52%)
Writing library                          : x264 core 161 r3018 db0d417
Encoding settings                        : cabac=1 / ref=5 / deblock=1:-3:-3 / analyse=0x3:0x133 / me=umh / subme=9 / psy=1 / psy_rd=1.00:0.00 / mixed_ref=1 / me_range=16 / chroma_me=1 / trellis=2 / 8x8dct=1 / cqm=0 / deadzone=21,11 / fast_pskip=1 / chroma_qp_offset=-2 / threads=15 / lookahead_threads=1 / sliced_threads=0 / nr=0 / decimate=1 / interlaced=0 / bluray_compat=0 / constrained_intra=0 / bframes=3 / b_pyramid=2 / b_adapt=2 / b_bias=0 / direct=3 / weightb=1 / open_gop=0 / weightp=2 / keyint=250 / keyint_min=23 / scenecut=40 / intra_refresh=0 / rc_lookahead=60 / rc=crf / mbtree=1 / crf=17.0 / qcomp=0.60 / qpmin=0 / qpmax=69 / qpstep=4 / ip_ratio=1.40 / aq=3:0.80
Language                                 : English
Default                                  : Yes
Forced                                   : No
Color range                              : Limited
Matrix coefficients                      : BT.709

Audio
ID                                       : 2
Format                                   : DTS XLL
Format/Info                              : Digital Theater Systems
Commercial name                          : DTS-HD Master Audio
Codec ID                                 : A_DTS
Duration                                 : 1 h 28 min
Bit rate mode                            : Variable
Bit rate                                 : 3 757 kb/s
Channel(s)                               : 6 channels
Channel layout                           : C L R Ls Rs LFE
Sampling rate                            : 48.0 kHz
Frame rate                               : 93.750 FPS (512 SPF)
Bit depth                                : 24 bits
Compression mode                         : Lossless
Stream size                              : 2.32 GiB (48%)
Title                                    : dtsxll
Language                                 : English
Default                                  : Yes
Forced                                   : No

Menu
00:00:00.000                             : en:00:00:00.000
00:10:00.600                             : en:00:10:00.600
00:20:01.200                             : en:00:20:01.200
00:30:01.800                             : en:00:30:01.800
00:40:02.400                             : en:00:40:02.400
00:50:03.000                             : en:00:50:03.000
01:00:03.600                             : en:01:00:03.600
01:10:04.200                             : en:01:10:04.200
01:20:04.800                             : en:01:20:04.800




                                                                                                                                                                                                        
                                                                                                                                                                                                                                                                                                                                                                                                                                                                                                                                                                                                                                                                                                                                                                                                                                                        
6e7ea9665eda47926387b3738aa3aa50.zip (49.26 KB, 下载次数: 0)

回复

使用道具 举报

小黑屋|百度云资源论坛 |网站地图

本网站所有资源来自网络,如无意中侵犯了您的权益,请发邮件至 [email protected],立即清除相关链接

GMT+8, 2021-1-27 11:02 , Processed in 0.094742 second(s), 23 queries .

Powered by Discuz! X3.2

© 2001-2013 Comsenz Inc.

快速回复 返回顶部 返回列表