百度云资源论坛

 找回密码
 立即注册
搜索

[BD-4K] 歌舞青春音乐剧:假日特别集 High.School.Musical.The.Musical.The.Hol...

[复制链接]
百度云资源 发表于 2020-12-30 14:17:03 | 显示全部楼层 |阅读模式
-->
帖子完整标题:歌舞青春音乐剧:假日特别集 High.School.Musical.The.Musical.The.Holiday.Special.2020.2160p.DSNP.WEBRip.x265.10bit.HDR.DDP5.1.Atmos-ROCCaT 5.42GB




◎译  名 歌舞青春音乐剧:假日特别集/High School Musical: La Comédie Musicale: Spécial No?l
◎片  名 High School Musical: The Musical: The Holiday Special
◎年  代 2020
◎产  地 美国
◎类  别 剧情 / 喜剧 / 歌舞
◎语  言 英语
◎上映日期 2020-12-11(美国)
◎IMDb评分  5.4/10 from 152 users
◎  
◎豆瓣评分 /10 from 0 users
◎ 
◎片  长 45分钟
◎导  演 蒂姆·费德勒尔 Tim Federle
◎主  演 奥利维亚·罗德里戈 Olivia Rodrigo
       约书亚·巴塞特 Joshua Bassett
       马特· 科耐特 Matt Cornett
       索菲亚·怀利  Sofia Wylie
       乔伊·塞拉费尼 Joe Serafini
       弗兰基·A·罗德里格斯 Frankie A. Rodriguez

◎标  签 音乐 | Disney | 歌舞 | 青春 | 美国 | 特别篇 | 校园 | 美剧

◎简  介

  The cast of ?High School Musical: The Musical - The Series? share anecdotes of memorable holidays from their childhoods, best presents, favorite traditions, family photos, and New Year's resolutions.
Video
ID                                       : 1
Format                                   : HEVC
Format/Info                              : High Efficiency Video Coding
Format profile                           : Main @High
HDR format                               : SMPTE ST 2086, HDR10 compatible
Codec ID                                 : V_MPEGH/ISO/HEVC
Duration                                 : 44 min 33 s
Bit rate                                 : 16.6 Mb/s
Width                                    : 3 840 pixels
Height                                   : 2 160 pixels
Display aspect ratio                     : 16:9
Frame rate mode                          : Constant
Frame rate                               : 23.976 (24000/1001/189150) FPS
Color space                              : YUV
Chroma subsampling                       : 4:2:0
Bit depth                                : 10 bits
Bits/(Pixel*Frame)                       : 0.084
Stream size                              : 5.18 GiB (96%)
Default                                  : Yes
Forced                                   : No
Color range                              : Limited
Color primaries                          : BT.2020
Transfer characteristics                 : PQ
Matrix coefficients                      : BT.2020 non-constant
Mastering display color primaries        : Display P3
Mastering display luminance              : min: 0.0000 cd/m2, max: 1000 cd/m2

Audio
ID                                       : 2
Format                                   : E-AC-3 JOC
Format/Info                              : Enhanced AC-3 with Joint Object Coding
Commercial name                          : Dolby Digital Plus with Dolby Atmos
Codec ID                                 : A_EAC3
Duration                                 : 44 min 33 s
Bit rate mode                            : Constant
Bit rate                                 : 768 kb/s
Channel(s)                               : 6 channels
Channel layout                           : L R C LFE Ls Rs
Sampling rate                            : 48.0 kHz
Frame rate                               : 31.250 FPS (1536 SPF)
Compression mode                         : Lossy
Stream size                              : 245 MiB (4%)
Language                                 : English
Service kind                             : Complete Main
Default                                  : Yes
Forced                                   : No
Complexity index                         : 16
Number of dynamic objects                : 15
Bed channel count                        : 1 channel
Bed channel configuration                : LFE

Text #1
ID                                       : 3
Format                                   : UTF-8
Codec ID                                 : S_TEXT/UTF8
Codec ID/Info                            : UTF-8 Plain Text
Duration                                 : 44 min 29 s
Bit rate                                 : 36 b/s
Count of elements                        : 236
Stream size                              : 11.9 KiB (0%)
Language                                 : Danish
Default                                  : No
Forced                                   : No

Text #2
ID                                       : 4
Format                                   : UTF-8
Codec ID                                 : S_TEXT/UTF8
Codec ID/Info                            : UTF-8 Plain Text
Duration                                 : 44 min 30 s
Bit rate                                 : 50 b/s
Count of elements                        : 400
Stream size                              : 16.5 KiB (0%)
Language                                 : German
Default                                  : No
Forced                                   : No

Text #3
ID                                       : 5
Format                                   : UTF-8
Codec ID                                 : S_TEXT/UTF8
Codec ID/Info                            : UTF-8 Plain Text
Duration                                 : 44 min 25 s
Bit rate                                 : 91 b/s
Count of elements                        : 692
Stream size                              : 29.9 KiB (0%)
Title                                    : (SDH)
Language                                 : English
Default                                  : No
Forced                                   : No

Text #4
ID                                       : 6
Format                                   : UTF-8
Codec ID                                 : S_TEXT/UTF8
Codec ID/Info                            : UTF-8 Plain Text
Duration                                 : 44 min 30 s
Bit rate                                 : 42 b/s
Count of elements                        : 400
Stream size                              : 13.8 KiB (0%)
Language                                 : Finnish
Default                                  : No
Forced                                   : No

Text #5
ID                                       : 7
Format                                   : UTF-8
Codec ID                                 : S_TEXT/UTF8
Codec ID/Info                            : UTF-8 Plain Text
Duration                                 : 44 min 30 s
Bit rate                                 : 50 b/s
Count of elements                        : 397
Stream size                              : 16.5 KiB (0%)
Language                                 : French
Default                                  : No
Forced                                   : No

Text #6
ID                                       : 8
Format                                   : UTF-8
Codec ID                                 : S_TEXT/UTF8
Codec ID/Info                            : UTF-8 Plain Text
Duration                                 : 44 min 30 s
Bit rate                                 : 47 b/s
Count of elements                        : 408
Stream size                              : 15.3 KiB (0%)
Language                                 : Italian
Default                                  : No
Forced                                   : No

Text #7
ID                                       : 9
Format                                   : UTF-8
Codec ID                                 : S_TEXT/UTF8
Codec ID/Info                            : UTF-8 Plain Text
Duration                                 : 44 min 30 s
Bit rate                                 : 42 b/s
Count of elements                        : 299
Stream size                              : 13.7 KiB (0%)
Language                                 : Dutch
Default                                  : No
Forced                                   : No

Text #8
ID                                       : 10
Format                                   : UTF-8
Codec ID                                 : S_TEXT/UTF8
Codec ID/Info                            : UTF-8 Plain Text
Duration                                 : 44 min 30 s
Bit rate                                 : 46 b/s
Count of elements                        : 407
Stream size                              : 15.1 KiB (0%)
Language                                 : Norwegian
Default                                  : No
Forced                                   : No

Text #9
ID                                       : 11
Format                                   : UTF-8
Codec ID                                 : S_TEXT/UTF8
Codec ID/Info                            : UTF-8 Plain Text
Duration                                 : 44 min 30 s
Bit rate                                 : 42 b/s
Count of elements                        : 402
Stream size                              : 14.0 KiB (0%)
Language                                 : Polish
Default                                  : No
Forced                                   : No

Text #10
ID                                       : 12
Format                                   : UTF-8
Codec ID                                 : S_TEXT/UTF8
Codec ID/Info                            : UTF-8 Plain Text
Duration                                 : 44 min 30 s
Bit rate                                 : 50 b/s
Count of elements                        : 408
Stream size                              : 16.3 KiB (0%)
Language                                 : Portuguese
Default                                  : No
Forced                                   : No

Text #11
ID                                       : 13
Format                                   : UTF-8
Codec ID                                 : S_TEXT/UTF8
Codec ID/Info                            : UTF-8 Plain Text
Duration                                 : 44 min 30 s
Bit rate                                 : 49 b/s
Count of elements                        : 407
Stream size                              : 16.2 KiB (0%)
Language                                 : Spanish
Default                                  : No
Forced                                   : No

Text #12
ID                                       : 14
Format                                   : UTF-8
Codec ID                                 : S_TEXT/UTF8
Codec ID/Info                            : UTF-8 Plain Text
Duration                                 : 44 min 30 s
Bit rate                                 : 49 b/s
Count of elements                        : 404
Stream size                              : 16.2 KiB (0%)
Language                                 : Swedish
Default                                  : No
Forced                                   : No




                                                                                                                                                                                                        
                                                                                                                                                                                                                                                                                                                                                                                                                                                                                                                                                                                                                                                                                                                                                                                                                                                        
77cc7d7e75201486d7a893bb622445f1.zip (27.93 KB, 下载次数: 0)

回复

使用道具 举报

小黑屋|百度云资源论坛 |网站地图

本网站所有资源来自网络,如无意中侵犯了您的权益,请发邮件至 [email protected],立即清除相关链接

GMT+8, 2021-1-23 15:28 , Processed in 0.098904 second(s), 23 queries .

Powered by Discuz! X3.2

© 2001-2013 Comsenz Inc.

快速回复 返回顶部 返回列表