百度云资源论坛

 找回密码
 立即注册
搜索

[BD-4K] 乐高星球大战:圣诞特别篇/乐高星球大战:假日特别篇 The.Leg...

[复制链接]
百度云电影 发表于 2020-12-30 14:17:03 | 显示全部楼层 |阅读模式
-->
帖子完整标题:乐高星球大战:圣诞特别篇/乐高星球大战:假日特别篇 The.Lego.Star.Wars.Holiday.Special.2020.2160p.DSNP.WEBRip.x265.10bit.HDR.DDP5.1-ROCCaT 5.28GB




◎译  名 乐高星球大战:圣诞特别篇/乐高星球大战:假日特别篇
◎片  名 The Lego Star Wars Holiday Special
◎年  代 2020
◎产  地 美国
◎类  别 喜剧 / 科幻 / 动画 / 短片
◎语  言 英语
◎上映日期 2020-11-17(美国)
◎IMDb评分  6.4/10 from 4473 users
◎  
◎豆瓣评分 7.4/10 from 610 users
◎ 
◎片  长 44分钟
◎主  演 凯莉·玛丽·陈 Kelly Marie Tran
       马特·兰特尔 Matt Lanter
       比利·迪·威廉姆斯 Billy Dee Williams
       迪·布拉雷·贝克尔 Dee Bradley Baker
       汤姆·凯恩 Tom Kane
       詹姆斯·阿诺德·泰勒 James Arnold Taylor
       安东尼·丹尼尔斯 Anthony Daniels

◎标  签 动画 | 乐高 | 星球大战 | 美国 | 科幻 | 喜剧 | 2020 | 短片

◎简  介

  [乐高星球大战:圣诞特别篇]释出海报!该特别篇讲述雷伊继续她的绝地武士训练。她在一座绝地神庙中遇到了一些神秘的东西,让她在时间中飞驰,遇到了星战传奇人物,并参观了过去的一些地方,但她还是必须为了生命日回家。凯莉·玛丽·陈、比利·迪·威廉姆斯、安东尼·丹尼尔斯分别为罗斯·蒂可、兰多、C-3PO配音。该特别篇将于11月17日登陆Disney+。
Video
ID                                       : 1
Format                                   : HEVC
Format/Info                              : High Efficiency Video Coding
Format profile                           : Main @High
HDR format                               : SMPTE ST 2086, HDR10 compatible
Codec ID                                 : V_MPEGH/ISO/HEVC
Duration                                 : 45 min 9 s
Bit rate                                 : 16.5 Mb/s
Width                                    : 3 840 pixels
Height                                   : 2 160 pixels
Display aspect ratio                     : 16:9
Frame rate mode                          : Constant
Frame rate                               : 23.976 (24000/1001/189150) FPS
Color space                              : YUV
Chroma subsampling                       : 4:2:0
Bit depth                                : 10 bits
Bits/(Pixel*Frame)                       : 0.083
Stream size                              : 5.20 GiB (98%)
Default                                  : Yes
Forced                                   : No
Color range                              : Limited
Color primaries                          : BT.2020
Transfer characteristics                 : PQ
Matrix coefficients                      : BT.2020 non-constant
Mastering display color primaries        : Display P3
Mastering display luminance              : min: 0.0000 cd/m2, max: 1000 cd/m2

Audio
ID                                       : 2
Format                                   : E-AC-3
Format/Info                              : Enhanced AC-3
Commercial name                          : Dolby Digital Plus
Codec ID                                 : A_EAC3
Duration                                 : 44 min 57 s
Bit rate mode                            : Constant
Bit rate                                 : 256 kb/s
Channel(s)                               : 6 channels
Channel layout                           : L R C LFE Ls Rs
Sampling rate                            : 48.0 kHz
Frame rate                               : 31.250 FPS (1536 SPF)
Compression mode                         : Lossy
Stream size                              : 82.3 MiB (2%)
Language                                 : English
Service kind                             : Complete Main
Default                                  : Yes
Forced                                   : No

Text #1
ID                                       : 3
Format                                   : UTF-8
Codec ID                                 : S_TEXT/UTF8
Codec ID/Info                            : UTF-8 Plain Text
Duration                                 : 44 min 30 s
Bit rate                                 : 54 b/s
Count of elements                        : 471
Stream size                              : 17.9 KiB (0%)
Language                                 : Danish
Default                                  : No
Forced                                   : No

Text #2
ID                                       : 4
Format                                   : UTF-8
Codec ID                                 : S_TEXT/UTF8
Codec ID/Info                            : UTF-8 Plain Text
Duration                                 : 44 min 30 s
Bit rate                                 : 63 b/s
Count of elements                        : 659
Stream size                              : 20.7 KiB (0%)
Language                                 : German
Default                                  : No
Forced                                   : No

Text #3
ID                                       : 5
Format                                   : UTF-8
Codec ID                                 : S_TEXT/UTF8
Codec ID/Info                            : UTF-8 Plain Text
Duration                                 : 44 min 13 s
Bit rate                                 : 71 b/s
Count of elements                        : 792
Stream size                              : 23.2 KiB (0%)
Title                                    : (SDH)
Language                                 : English
Default                                  : No
Forced                                   : No

Text #4
ID                                       : 6
Format                                   : UTF-8
Codec ID                                 : S_TEXT/UTF8
Codec ID/Info                            : UTF-8 Plain Text
Duration                                 : 44 min 30 s
Bit rate                                 : 53 b/s
Count of elements                        : 618
Stream size                              : 17.4 KiB (0%)
Language                                 : Finnish
Default                                  : No
Forced                                   : No

Text #5
ID                                       : 7
Format                                   : UTF-8
Codec ID                                 : S_TEXT/UTF8
Codec ID/Info                            : UTF-8 Plain Text
Duration                                 : 44 min 30 s
Bit rate                                 : 55 b/s
Count of elements                        : 620
Stream size                              : 18.1 KiB (0%)
Language                                 : French
Default                                  : No
Forced                                   : No

Text #6
ID                                       : 8
Format                                   : UTF-8
Codec ID                                 : S_TEXT/UTF8
Codec ID/Info                            : UTF-8 Plain Text
Duration                                 : 44 min 30 s
Bit rate                                 : 58 b/s
Count of elements                        : 618
Stream size                              : 18.9 KiB (0%)
Language                                 : Italian
Default                                  : No
Forced                                   : No

Text #7
ID                                       : 9
Format                                   : UTF-8
Codec ID                                 : S_TEXT/UTF8
Codec ID/Info                            : UTF-8 Plain Text
Duration                                 : 44 min 30 s
Bit rate                                 : 56 b/s
Count of elements                        : 515
Stream size                              : 18.5 KiB (0%)
Language                                 : Dutch
Default                                  : No
Forced                                   : No

Text #8
ID                                       : 10
Format                                   : UTF-8
Codec ID                                 : S_TEXT/UTF8
Codec ID/Info                            : UTF-8 Plain Text
Duration                                 : 44 min 30 s
Bit rate                                 : 56 b/s
Count of elements                        : 619
Stream size                              : 18.3 KiB (0%)
Language                                 : Norwegian
Default                                  : No
Forced                                   : No

Text #9
ID                                       : 11
Format                                   : UTF-8
Codec ID                                 : S_TEXT/UTF8
Codec ID/Info                            : UTF-8 Plain Text
Duration                                 : 44 min 30 s
Bit rate                                 : 52 b/s
Count of elements                        : 611
Stream size                              : 17.1 KiB (0%)
Language                                 : Polish
Default                                  : No
Forced                                   : No

Text #10
ID                                       : 12
Format                                   : UTF-8
Codec ID                                 : S_TEXT/UTF8
Codec ID/Info                            : UTF-8 Plain Text
Duration                                 : 44 min 30 s
Bit rate                                 : 62 b/s
Count of elements                        : 622
Stream size                              : 20.4 KiB (0%)
Language                                 : Portuguese
Default                                  : No
Forced                                   : No

Text #11
ID                                       : 13
Format                                   : UTF-8
Codec ID                                 : S_TEXT/UTF8
Codec ID/Info                            : UTF-8 Plain Text
Duration                                 : 44 min 30 s
Bit rate                                 : 58 b/s
Count of elements                        : 620
Stream size                              : 19.2 KiB (0%)
Language                                 : Spanish
Default                                  : No
Forced                                   : No

Text #12
ID                                       : 14
Format                                   : UTF-8
Codec ID                                 : S_TEXT/UTF8
Codec ID/Info                            : UTF-8 Plain Text
Duration                                 : 44 min 30 s
Bit rate                                 : 54 b/s
Count of elements                        : 617
Stream size                              : 17.6 KiB (0%)
Language                                 : Swedish
Default                                  : No
Forced                                   : No




                                                                                                                                                                                                        
                                                                                                                                                                                                                                                                                                                                                                                                                                                                                                                                                                                                                                                                                                                                                                                                                                                        
6957261f16f43486b8c5b2e47409fb50.zip (27.15 KB, 下载次数: 0)

回复

使用道具 举报

小黑屋|百度云资源论坛 |网站地图

本网站所有资源来自网络,如无意中侵犯了您的权益,请发邮件至 [email protected],立即清除相关链接

GMT+8, 2021-1-28 09:12 , Processed in 0.097076 second(s), 23 queries .

Powered by Discuz! X3.2

© 2001-2013 Comsenz Inc.

快速回复 返回顶部 返回列表