百度云资源论坛

 找回密码
 立即注册
搜索

[BD-4K] 黑神驹/黑骏马 Black.Beauty.2020.2160p.WEB-DL.DDP5.1.Atmos.DV.x265-MZABI...

[复制链接]
百度云资源 发表于 2020-12-30 14:17:03 | 显示全部楼层 |阅读模式
-->
帖子完整标题:黑神驹/黑骏马 Black.Beauty.2020.2160p.WEB-DL.DDP5.1.Atmos.DV.x265-MZABI 17.07GB




◎译  名 黑神驹/黑骏马
◎片  名 Black Beauty
◎年  代 2020
◎产  地 美国,英国,南非,德国,法国
◎类  别 剧情
◎语  言 英语
◎上映日期 2020-11-27(美国网络)
◎IMDb评分  6.3/10 from 1447 users
◎  
◎豆瓣评分 7.1/10 from 472 users
◎ 
◎片  长 110分钟
◎导  演 阿什利·阿维斯 Ashley Avis
◎编  剧 阿什利·阿维斯 Ashley Avis / 安娜·瑟维尔 Anna Sewell
◎主  演 凯特·温丝莱特 Kate Winslet
       麦肯吉·弗依 Mackenzie Foy
       伊恩·格雷 Iain Glen
       卡拉姆·林奇 Calam Lynch
       克莱尔·弗兰妮 Claire Forlani
       Fern Deacon
       马特·里皮 Matt Rippy
       比约恩·施泰因巴赫 Bjorn Steinbach
       帕特里克·利斯特 Patrick Lyster
       哈基姆·凯-卡西姆 Hakeem Kae-Kazim
       亚历克斯·安洛斯 Alex Anlos
       大卫·杜卡斯 David Dukas
       达伦-迈耶 Darron Meyer
       德翁·洛茨 Deon Lotz
       阿什利·泰勒 Ashley Taylor
       阿维纳·亚伯拉罕 Avianah Abrahams
       马克·埃尔德金 Mark Elderkin
       彼得·巴特勒 Peter Butler

◎标  签 动物 | 美国 | 剧情 | 2020 | 凯特·温丝莱特 | 美国电影 | 麦肯吉 | 电影

◎简  介

  影片由阿什利·阿维斯自编自导,故事基于安娜·休厄尔1877年完成的同名畅销小说改编。原小说以“黑神驹”的视角进行第一人称表达,描绘出一部属于“黑神驹”的自传体回忆录。影片将着重描绘17岁女孩乔(弗依饰)与“黑神驹”(温斯莱特配音)间深厚的情感纽带,是“黑神驹”使乔走出了父母离世的精神创伤。
Video
ID                                       : 1
Format                                   : HEVC
Format/Info                              : High Efficiency Video Coding
Format profile                           : Main @Main
HDR format                               : Dolby Vision, Version 1.0, dvhe.05.06, BL+RPU
Codec ID                                 : dvhe
Codec ID/Info                            : High Efficiency Video Coding with Dolby Vision
Duration                                 : 1 h 48 min
Bit rate                                 : 21.8 Mb/s
Width                                    : 3 840 pixels
Height                                   : 2 160 pixels
Display aspect ratio                     : 16:9
Frame rate mode                          : Constant
Frame rate                               : 23.976 (24000/1001/189150) FPS
Color space                              : YUV
Chroma subsampling                       : 4:2:0 (Type 0)
Bit depth                                : 10 bits
Bits/(Pixel*Frame)                       : 0.109
Stream size                              : 16.5 GiB (97%)
Default                                  : Yes
Alternate group                          : 1
Encoded date                             : UTC 2020-12-28 12:38:05
Tagged date                              : UTC 2020-12-28 16:19:18
Color range                              : Full
Codec configuration box                  : hvcC+dvcC

Audio
ID                                       : 2
Format                                   : E-AC-3 JOC
Format/Info                              : Enhanced AC-3 with Joint Object Coding
Commercial name                          : Dolby Digital Plus with Dolby Atmos
Codec ID                                 : ac-3
Duration                                 : 1 h 48 min
Bit rate mode                            : Constant
Bit rate                                 : 768 kb/s
Maximum bit rate                         : 811 kb/s
Channel(s)                               : 6 channels
Channel layout                           : L R C LFE Ls Rs
Sampling rate                            : 48.0 kHz
Frame rate                               : 31.250 FPS (1536 SPF)
Compression mode                         : Lossy
Stream size                              : 596 MiB (3%)
Language                                 : English
Service kind                             : Complete Main
Default                                  : Yes
Alternate group                          : 2
Encoded date                             : UTC 2020-12-28 12:38:05
Tagged date                              : UTC 2020-12-28 16:19:18
Complexity index                         : Not present / 16
Number of dynamic objects                : 15
Bed channel count                        : 1 channel
Bed channel configuration                : LFE

Text #1
ID                                       : 3
Format                                   : Timed Text
Codec ID                                 : tx3g
Duration                                 : 1 h 39 min
Bit rate mode                            : Variable
Bit rate                                 : 63 b/s
Stream size                              : 45.8 KiB (0%)
Title                                    : English
Language                                 : English
Forced                                   : No
Encoded date                             : UTC 2020-12-28 16:19:16
Tagged date                              : UTC 2020-12-28 16:19:18

Text #2
ID                                       : 4
Format                                   : Timed Text
Codec ID                                 : tx3g
Duration                                 : 1 h 39 min
Bit rate mode                            : Variable
Bit rate                                 : 75 b/s
Stream size                              : 54.9 KiB (0%)
Title                                    : English [SDH]
Language                                 : English
Forced                                   : No
Encoded date                             : UTC 2020-12-28 16:19:16
Tagged date                              : UTC 2020-12-28 16:19:18

Text #3
ID                                       : 5
Format                                   : Timed Text
Codec ID                                 : tx3g
Duration                                 : 1 h 48 min
Bit rate mode                            : Variable
Bit rate                                 : 56 b/s
Stream size                              : 44.2 KiB (0%)
Title                                    : Brazilian Portuguese
Language                                 : Portuguese
Forced                                   : No
Encoded date                             : UTC 2020-12-28 16:19:16
Tagged date                              : UTC 2020-12-28 16:19:18

Text #4
ID                                       : 6
Format                                   : Timed Text
Codec ID                                 : tx3g
Duration                                 : 1 h 48 min
Bit rate mode                            : Variable
Bit rate                                 : 58 b/s
Stream size                              : 45.7 KiB (0%)
Title                                    : Danish
Language                                 : Danish
Forced                                   : No
Encoded date                             : UTC 2020-12-28 16:19:16
Tagged date                              : UTC 2020-12-28 16:19:18

Text #5
ID                                       : 7
Format                                   : Timed Text
Codec ID                                 : tx3g
Duration                                 : 1 h 48 min
Bit rate mode                            : Variable
Bit rate                                 : 58 b/s
Stream size                              : 46.4 KiB (0%)
Title                                    : German
Language                                 : German
Forced                                   : No
Encoded date                             : UTC 2020-12-28 16:19:16
Tagged date                              : UTC 2020-12-28 16:19:18

Text #6
ID                                       : 8
Format                                   : Timed Text
Codec ID                                 : tx3g
Duration                                 : 1 h 48 min
Bit rate mode                            : Variable
Bit rate                                 : 52 b/s
Stream size                              : 41.1 KiB (0%)
Title                                    : European Spanish
Language                                 : Spanish
Forced                                   : No
Encoded date                             : UTC 2020-12-28 16:19:17
Tagged date                              : UTC 2020-12-28 16:19:18

Text #7
ID                                       : 9
Format                                   : Timed Text
Codec ID                                 : tx3g
Duration                                 : 1 h 48 min
Bit rate mode                            : Variable
Bit rate                                 : 51 b/s
Stream size                              : 40.6 KiB (0%)
Title                                    : Finnish
Language                                 : Finnish
Forced                                   : No
Encoded date                             : UTC 2020-12-28 16:19:17
Tagged date                              : UTC 2020-12-28 16:19:18

Text #8
ID                                       : 10
Format                                   : Timed Text
Codec ID                                 : tx3g
Duration                                 : 1 h 48 min
Bit rate mode                            : Variable
Bit rate                                 : 57 b/s
Stream size                              : 45.4 KiB (0%)
Title                                    : French
Language                                 : French
Forced                                   : No
Encoded date                             : UTC 2020-12-28 16:19:17
Tagged date                              : UTC 2020-12-28 16:19:18

Text #9
ID                                       : 11
Format                                   : Timed Text
Codec ID                                 : tx3g
Duration                                 : 1 h 48 min
Bit rate mode                            : Variable
Bit rate                                 : 54 b/s
Stream size                              : 43.1 KiB (0%)
Title                                    : Italian
Language                                 : Italian
Forced                                   : No
Encoded date                             : UTC 2020-12-28 16:19:17
Tagged date                              : UTC 2020-12-28 16:19:18

Text #10
ID                                       : 12
Format                                   : Timed Text
Codec ID                                 : tx3g
Duration                                 : 1 h 48 min
Bit rate mode                            : Variable
Bit rate                                 : 55 b/s
Stream size                              : 43.7 KiB (0%)
Title                                    : Dutch
Language                                 : Dutch
Forced                                   : No
Encoded date                             : UTC 2020-12-28 16:19:17
Tagged date                              : UTC 2020-12-28 16:19:18

Text #11
ID                                       : 13
Format                                   : Timed Text
Codec ID                                 : tx3g
Duration                                 : 1 h 48 min
Bit rate mode                            : Variable
Bit rate                                 : 57 b/s
Stream size                              : 45.6 KiB (0%)
Title                                    : Norwegian
Language                                 : Norwegian
Forced                                   : No
Encoded date                             : UTC 2020-12-28 16:19:17
Tagged date                              : UTC 2020-12-28 16:19:18

Text #12
ID                                       : 14
Format                                   : Timed Text
Codec ID                                 : tx3g
Duration                                 : 1 h 48 min
Bit rate mode                            : Variable
Bit rate                                 : 56 b/s
Stream size                              : 44.2 KiB (0%)
Title                                    : Polish
Language                                 : Polish
Forced                                   : No
Encoded date                             : UTC 2020-12-28 16:19:17
Tagged date                              : UTC 2020-12-28 16:19:18

Text #13
ID                                       : 15
Format                                   : Timed Text
Codec ID                                 : tx3g
Duration                                 : 1 h 48 min
Bit rate mode                            : Variable
Bit rate                                 : 55 b/s
Stream size                              : 43.8 KiB (0%)
Title                                    : Portuguese
Language                                 : Portuguese
Forced                                   : No
Encoded date                             : UTC 2020-12-28 16:19:17
Tagged date                              : UTC 2020-12-28 16:19:18

Text #14
ID                                       : 16
Format                                   : Timed Text
Codec ID                                 : tx3g
Duration                                 : 1 h 48 min
Bit rate mode                            : Variable
Bit rate                                 : 58 b/s
Stream size                              : 45.7 KiB (0%)
Title                                    : Spanish
Language                                 : Spanish
Forced                                   : No
Encoded date                             : UTC 2020-12-28 16:19:18
Tagged date                              : UTC 2020-12-28 16:19:18

Text #15
ID                                       : 17
Format                                   : Timed Text
Codec ID                                 : tx3g
Duration                                 : 1 h 48 min
Bit rate mode                            : Variable
Bit rate                                 : 58 b/s
Stream size                              : 45.9 KiB (0%)
Title                                    : Swedish
Language                                 : Swedish
Forced                                   : No
Encoded date                             : UTC 2020-12-28 16:19:18
Tagged date                              : UTC 2020-12-28 16:19:18




                                                                                                                                                                                                        
                                                                                                                                                                                                                                                                                                                                                                                                                                                                                                                                                                                                                                                                                                                                                                                                                                                        
c96fb4bfd60d9ee95e4b67f63bd35147.zip (86.07 KB, 下载次数: 0)

回复

使用道具 举报

小黑屋|百度云资源论坛 |网站地图

本网站所有资源来自网络,如无意中侵犯了您的权益,请发邮件至 [email protected],立即清除相关链接

GMT+8, 2021-1-23 16:26 , Processed in 0.118748 second(s), 23 queries .

Powered by Discuz! X3.2

© 2001-2013 Comsenz Inc.

快速回复 返回顶部 返回列表