百度云资源论坛

 找回密码
 立即注册
搜索

[4K-原盘] 怒火青春 La.Haine.1995.FRENCH.2160p.BluRay.REMUX.HEVC.DTS-HD.MA.5.1-FGT 4...

[复制链接]
百度云资源 发表于 2020-12-30 13:56:45 | 显示全部楼层 |阅读模式
-->
帖子完整标题:怒火青春 La.Haine.1995.FRENCH.2160p.BluRay.REMUX.HEVC.DTS-HD.MA.5.1-FGT 44.09GB




◎译  名 怒火青春/The Hate/仇恨/恨
◎片  名 La haine
◎年  代 1995
◎产  地 法国
◎类  别 剧情 / 犯罪
◎语  言 法语
◎上映日期 1995-05-31
◎IMDb评分  8.1/10 from 148703 users
◎  
◎豆瓣评分 8.2/10 from 13272 users
◎ 
◎片  长 98分钟
◎导  演 马修·卡索维茨 Mathieu Kassovitz
◎编  剧 马修·卡索维茨 Mathieu Kassovitz
◎主  演 文森特·卡索 Vincent Cassel
       哈勃·孔黛 Hubert Koundé
       萨伊德·塔格马奥 Sa?d Taghmaoui
       文森特·林顿 Vincent Lindon
       嘉莲·维雅 Karin Viard
       克里斯朵夫·罗西尼翁 Christophe Rossignon
       马修·卡索维茨 Mathieu Kassovitz

◎标  签 法国 | 青春 | 法国电影 | 黑白 | 犯罪 | 1995 | 剧情 | Mathieu_Kassovitz

◎简  介

  影片以1993年在巴黎18区发生的一起警察暴力的真实事件为背景:一名警察在巡逻期间枪杀了一名17岁的扎伊尔少年Makomé M'Bowolé。而在影片当中,巴黎街头,一群反政府青年。纠纷由其中一人被警察殴打重伤而起,众人怀恨在心。文兹(文森特·卡塞尔 Vincent Cassel饰)弄到一把真枪,决心还以颜色。他们的仇恨与愤怒随处可见,这场与警察之间的大规模冲突,一触即发。混战中,文兹被警察开枪打死,他的同党也颤抖着对准了警察的头,枪声响起……无论是警察还是街头混混,每个人都失去了控制。这青春期里的不安与躁动,就像失控的怒火一般,无人幸免。 导演马修·卡索维茨荣获第48届戛纳电影节(1995)主竞赛单元最佳导演奖。

◎获奖情况

  第48届戛纳电影节 ?(1995)
  主竞赛单元金棕榈奖(提名) 马修·卡索维茨
  主竞赛单元最佳导演 马修·卡索维茨
Video
ID                                       : 1
ID in the original source medium         : 4113 (0x1011)
Format                                   : HEVC
Format/Info                              : High Efficiency Video Coding
Format profile                           : Main @High
HDR format                               : SMPTE ST 2086, HDR10 compatible
Codec ID                                 : V_MPEGH/ISO/HEVC
Duration                                 : 1 h 37 min
Bit rate                                 : 54.0 Mb/s
Width                                    : 3 840 pixels
Height                                   : 2 160 pixels
Display aspect ratio                     : 16:9
Frame rate mode                          : Constant
Frame rate                               : 24.000 FPS
Color space                              : YUV
Chroma subsampling                       : 4:2:0 (Type 2)
Bit depth                                : 10 bits
Bits/(Pixel*Frame)                       : 0.271
Stream size                              : 36.9 GiB (84%)
Language                                 : English
Default                                  : No
Forced                                   : No
Color range                              : Limited
Color primaries                          : BT.2020
Transfer characteristics                 : PQ
Matrix coefficients                      : BT.2020 non-constant
Mastering display color primaries        : BT.2020
Mastering display luminance              : min: 0.0001 cd/m2, max: 1000 cd/m2
Original source medium                   : Blu-ray

Audio #1
ID                                       : 2
ID in the original source medium         : 4352 (0x1100)
Format                                   : DTS XLL
Format/Info                              : Digital Theater Systems
Commercial name                          : DTS-HD Master Audio
Codec ID                                 : A_DTS
Duration                                 : 1 h 37 min
Bit rate mode                            : Variable
Bit rate                                 : 3 082 kb/s
Channel(s)                               : 6 channels
Channel layout                           : C L R Ls Rs LFE
Sampling rate                            : 48.0 kHz
Frame rate                               : 93.750 FPS (512 SPF)
Bit depth                                : 24 bits
Compression mode                         : Lossless
Stream size                              : 2.11 GiB (5%)
Title                                    : DTS-HD MA 5.1
Language                                 : French
Default                                  : Yes
Forced                                   : No
Original source medium                   : Blu-ray

Audio #2
ID                                       : 3
Format                                   : AC-3
Format/Info                              : Audio Coding 3
Commercial name                          : Dolby Digital
Codec ID                                 : A_AC3
Duration                                 : 1 h 37 min
Bit rate mode                            : Constant
Bit rate                                 : 640 kb/s
Channel(s)                               : 6 channels
Channel layout                           : L R C LFE Ls Rs
Sampling rate                            : 48.0 kHz
Frame rate                               : 31.250 FPS (1536 SPF)
Compression mode                         : Lossy
Stream size                              : 448 MiB (1%)
Title                                    : DD 5.1
Language                                 : French
Service kind                             : Complete Main
Default                                  : No
Forced                                   : No

Audio #3
ID                                       : 4
ID in the original source medium         : 4353 (0x1101)
Format                                   : DTS XLL
Format/Info                              : Digital Theater Systems
Commercial name                          : DTS-HD Master Audio
Codec ID                                 : A_DTS
Duration                                 : 1 h 37 min
Bit rate mode                            : Variable
Bit rate                                 : 2 098 kb/s
Channel(s)                               : 2 channels
Channel layout                           : L R
Sampling rate                            : 48.0 kHz
Frame rate                               : 93.750 FPS (512 SPF)
Bit depth                                : 24 bits
Compression mode                         : Lossless
Stream size                              : 1.44 GiB (3%)
Title                                    : DTS-HD MA 2.0
Language                                 : French
Default                                  : No
Forced                                   : No
Original source medium                   : Blu-ray

Audio #4
ID                                       : 5
ID in the original source medium         : 4354 (0x1102)
Format                                   : PCM
Format settings                          : Little / Signed
Codec ID                                 : A_PCM/INT/LIT
Duration                                 : 1 h 37 min
Bit rate mode                            : Constant
Bit rate                                 : 1 536 kb/s
Channel(s)                               : 2 channels
Sampling rate                            : 48.0 kHz
Frame rate                               : 30.000 FPS (1600 SPF)
Bit depth                                : 16 bits
Stream size                              : 1.05 GiB (2%)
Title                                    : LPCM 2.0
Language                                 : French
Default                                  : No
Forced                                   : No
Original source medium                   : Blu-ray

Audio #5
ID                                       : 6
ID in the original source medium         : 4355 (0x1103)
Format                                   : PCM
Format settings                          : Little / Signed
Codec ID                                 : A_PCM/INT/LIT
Duration                                 : 1 h 37 min
Bit rate mode                            : Constant
Bit rate                                 : 1 536 kb/s
Channel(s)                               : 2 channels
Sampling rate                            : 48.0 kHz
Frame rate                               : 30.000 FPS (1600 SPF)
Bit depth                                : 16 bits
Stream size                              : 1.05 GiB (2%)
Title                                    : LPCM 2.0
Language                                 : French
Default                                  : No
Forced                                   : No
Original source medium                   : Blu-ray

Audio #6
ID                                       : 7
ID in the original source medium         : 4356 (0x1104)
Format                                   : PCM
Format settings                          : Little / Signed
Codec ID                                 : A_PCM/INT/LIT
Duration                                 : 1 h 37 min
Bit rate mode                            : Constant
Bit rate                                 : 1 536 kb/s
Channel(s)                               : 2 channels
Sampling rate                            : 48.0 kHz
Frame rate                               : 30.000 FPS (1600 SPF)
Bit depth                                : 16 bits
Stream size                              : 1.05 GiB (2%)
Title                                    : LPCM 2.0
Language                                 : French
Default                                  : No
Forced                                   : No
Original source medium                   : Blu-ray

Text #1
ID                                       : 8
Format                                   : UTF-8
Codec ID                                 : S_TEXT/UTF8
Codec ID/Info                            : UTF-8 Plain Text
Duration                                 : 1 h 37 min
Bit rate                                 : 46 b/s
Count of elements                        : 1397
Stream size                              : 33.0 KiB (0%)
Title                                    : English-SRT
Language                                 : English
Default                                  : Yes
Forced                                   : No

Text #2
ID                                       : 9
ID in the original source medium         : 4769 (0x12A1)
Format                                   : PGS
Muxing mode                              : zlib
Codec ID                                 : S_HDMV/PGS
Codec ID/Info                            : Picture based subtitle format used on BDs/HD-DVDs
Duration                                 : 1 h 37 min
Bit rate                                 : 29.5 kb/s
Count of elements                        : 2804
Stream size                              : 20.5 MiB (0%)
Title                                    : English-PGS
Language                                 : English
Default                                  : No
Forced                                   : No
Original source medium                   : Blu-ray

Text #3
ID                                       : 10
ID in the original source medium         : 4768 (0x12A0)
Format                                   : PGS
Muxing mode                              : zlib
Codec ID                                 : S_HDMV/PGS
Codec ID/Info                            : Picture based subtitle format used on BDs/HD-DVDs
Duration                                 : 1 h 36 min
Bit rate                                 : 28.1 kb/s
Count of elements                        : 2272
Stream size                              : 19.4 MiB (0%)
Title                                    : French-PGS
Language                                 : French
Default                                  : No
Forced                                   : No
Original source medium                   : Blu-ray

Menu
00:00:00.000                             : en:Chapter 01
00:05:50.541                             : en:Chapter 02
00:20:10.000                             : en:Chapter 03
00:25:54.833                             : en:Chapter 04
00:29:12.458                             : en:Chapter 05
00:44:38.916                             : en:Chapter 06
00:50:28.541                             : en:Chapter 07
01:06:28.458                             : en:Chapter 08
01:09:54.750                             : en:Chapter 09
01:12:39.875                             : en:Chapter 10
01:25:12.666                             : en:Chapter 11
01:29:59.000                             : en:Chapter 12
01:34:47.541                             : en:Chapter 13
01:36:36.000                             : en:Chapter 14
01:37:15.416                             : en:Chapter 15




                                                                                                                                                                                                        
                                                                                                                                                                                                                                                                                                                                                                                                                                                                                                                                                                                                                                                                                                                                                                                                                                                        
43ffd3b5063ecfd0c07f64247c80a62e.zip (110.93 KB, 下载次数: 0)

回复

使用道具 举报

小黑屋|百度云资源论坛 |网站地图

本网站所有资源来自网络,如无意中侵犯了您的权益,请发邮件至 [email protected],立即清除相关链接

GMT+8, 2021-1-23 16:54 , Processed in 0.096034 second(s), 23 queries .

Powered by Discuz! X3.2

© 2001-2013 Comsenz Inc.

快速回复 返回顶部 返回列表