百度云资源论坛

 找回密码
 立即注册
搜索

克莱曼婷 Clementine.2019.1080p.BluRay.x264-BiPOLAR 9.78GB

[复制链接]
百度云电影 发表于 2020-12-30 13:36:23 | 显示全部楼层 |阅读模式
-->
帖子完整标题:克莱曼婷 Clementine.2019.1080p.BluRay.x264-BiPOLAR 9.78GB




◎译  名 克莱曼婷
◎片  名 Clementine
◎年  代 2019
◎产  地 美国
◎类  别 剧情
◎语  言 英语
◎上映日期 2019-04-27(翠贝卡电影节) / 2020-05-08(美国)
◎IMDb评分  5.2/10 from 278 users
◎  
◎豆瓣评分 5.9/10 from 229 users
◎ 
◎片  长 90分钟
◎导  演 Lara Gallagher
◎编  剧 Lara Gallagher
◎主  演 索尼亚·瓦格尔 Sonya Walger
       奥特玛拉·马蕾罗 Otmara Marrero
       西德妮·斯威尼 Sydney Sweeney
       威尔·布里顿 Will Brittain
       威尔·卡迪 Will Cuddy

◎标  签 同性 | LGBT | 美国 | 剧情 | les | 2019 | LES | 美(加)国电影

◎简  介

  悲痛的凯伦从单方分手中解脱出来,闯入她前任的湖边小屋。 在那里,她与挑衅的年轻女子拉娜建立了复杂的关系。
Video
ID                                       : 1
Format                                   : AVC
Format/Info                              : Advanced Video Codec
Format profile                           :
Format settings                          : CABAC / 5 Ref Frames
Format settings, CABAC                   : Yes
Format settings, Reference frames        : 5 frames
Codec ID                                 : V_MPEG4/ISO/AVC
Duration                                 : 1 h 34 min
Bit rate                                 : 11.5 Mb/s
Width                                    : 1 920 pixels
Height                                   : 806 pixels
Display aspect ratio                     : 2.40:1
Frame rate mode                          : Constant
Frame rate                               : 23.976 (24000/1001/189150) FPS
Color space                              : YUV
Chroma subsampling                       : 4:2:0
Bit depth                                : 8 bits
Scan type                                : Progressive
Bits/(Pixel*Frame)                       : 0.309
Stream size                              : 7.54 GiB (77%)
Writing library                          : x264 core 161 r3027 4121277
Encoding settings                        : cabac=1 / ref=5 / deblock=1:-3:-3 / analyse=0x3:0x133 / me=umh / subme=10 / psy=1 / psy_rd=1.00:0.15 / mixed_ref=1 / me_range=24 / chroma_me=1 / trellis=2 / 8x8dct=1 / cqm=0 / deadzone=21,11 / fast_pskip=1 / chroma_qp_offset=-3 / threads=18 / lookahead_threads=3 / sliced_threads=0 / nr=0 / decimate=1 / interlaced=0 / bluray_compat=0 / constrained_intra=0 / bframes=8 / b_pyramid=2 / b_adapt=2 / b_bias=0 / direct=3 / weightb=1 / open_gop=0 / weightp=2 / keyint=250 / keyint_min=23 / scenecut=40 / intra_refresh=0 / rc_lookahead=60 / rc=crf / mbtree=1 / crf=14.0 / qcomp=0.60 / qpmin=0 / qpmax=69 / qpstep=4 / ip_ratio=1.40 / aq=3:0.70
Language                                 : English
Default                                  : Yes
Forced                                   : No
Color range                              : Limited
Matrix coefficients                      : BT.709

Audio #1
ID                                       : 2
Format                                   : DTS XLL
Format/Info                              : Digital Theater Systems
Commercial name                          : DTS-HD Master Audio
Codec ID                                 : A_DTS
Duration                                 : 1 h 34 min
Bit rate mode                            : Variable
Bit rate                                 : 3 269 kb/s
Channel(s)                               : 6 channels
Channel layout                           : C L R Ls Rs LFE
Sampling rate                            : 48.0 kHz
Frame rate                               : 93.750 FPS (512 SPF)
Bit depth                                : 24 bits
Compression mode                         : Lossless
Stream size                              : 2.15 GiB (22%)
Language                                 : English
Default                                  : Yes
Forced                                   : No

Audio #2
ID                                       : 3
Format                                   : AAC LC
Format/Info                              : Advanced Audio Codec Low Complexity
Codec ID                                 : A_AAC-2
Duration                                 : 1 h 34 min
Bit rate                                 : 109 kb/s
Channel(s)                               : 2 channels
Channel layout                           : L R
Sampling rate                            : 48.0 kHz
Frame rate                               : 46.875 FPS (1024 SPF)
Compression mode                         : Lossy
Delay relative to video                  : 9 ms
Stream size                              : 73.4 MiB (1%)
Title                                    : English Commentary by Lara Gallagher
Language                                 : English
Default                                  : No
Forced                                   : No

Text #1
ID                                       : 4
Format                                   : UTF-8
Codec ID                                 : S_TEXT/UTF8
Codec ID/Info                            : UTF-8 Plain Text
Duration                                 : 1 h 29 min
Bit rate                                 : 21 b/s
Count of elements                        : 707
Stream size                              : 14.3 KiB (0%)
Title                                    : English
Language                                 : English
Default                                  : No
Forced                                   : No

Text #2
ID                                       : 5
Format                                   : UTF-8
Codec ID                                 : S_TEXT/UTF8
Codec ID/Info                            : UTF-8 Plain Text
Duration                                 : 1 h 29 min
Bit rate                                 : 25 b/s
Count of elements                        : 816
Stream size                              : 17.0 KiB (0%)
Title                                    : English SDH
Language                                 : English
Default                                  : No
Forced                                   : No

Text #3
ID                                       : 6
Format                                   : PGS
Muxing mode                              : zlib
Codec ID                                 : S_HDMV/PGS
Codec ID/Info                            : Picture based subtitle format used on BDs/HD-DVDs
Duration                                 : 1 h 29 min
Bit rate                                 : 9 507 b/s
Count of elements                        : 1632
Stream size                              : 6.09 MiB (0%)
Title                                    : English SDH
Language                                 : English
Default                                  : No
Forced                                   : No

Menu
00:00:00.000                             : en:00:00:00.000
00:11:42.201                             : en:00:11:42.201
00:17:32.885                             : en:00:17:32.885
00:18:38.868                             : en:00:18:38.868
00:26:41.016                             : en:00:26:41.016
00:31:19.836                             : en:00:31:19.836
00:37:14.816                             : en:00:37:14.816
00:44:42.847                             : en:00:44:42.847
00:50:42.581                             : en:00:50:42.581
00:55:59.481                             : en:00:55:59.481
01:01:27.225                             : en:01:01:27.225
01:10:53.666                             : en:01:10:53.666
01:16:13.861                             : en:01:16:13.861
01:21:22.920                             : en:01:21:22.920
01:26:08.288                             : en:01:26:08.288
01:29:48.300                             : en:01:29:48.300




                                                                                                                                                                                                        
                                                                                                                                                                                                                                                                                                                                                                                                                                                                                                                                                                                                                                                                                                                                                                                                                                                        
46258c905f5a0ac51da22426c55bf305.zip (49.57 KB, 下载次数: 0)

回复

使用道具 举报

小黑屋|百度云资源论坛 |网站地图

本网站所有资源来自网络,如无意中侵犯了您的权益,请发邮件至 [email protected],立即清除相关链接

GMT+8, 2021-1-27 10:52 , Processed in 0.094784 second(s), 23 queries .

Powered by Discuz! X3.2

© 2001-2013 Comsenz Inc.

快速回复 返回顶部 返回列表