百度云资源论坛

 找回密码
 立即注册
搜索

夺金营救 Honest.Thief.2020.1080p.BluRay.x264-PiGNUS 10.96GB

[复制链接]
百度云电影 发表于 2020-12-30 13:36:23 | 显示全部楼层 |阅读模式
-->
帖子完整标题:夺金营救 Honest.Thief.2020.1080p.BluRay.x264-PiGNUS 10.96GB




◎译  名 夺金营救/The Honest Thief/倒数反击(台)/末路狂盗(港)/诚实的小偷
◎片  名 Honest Thief
◎年  代 2020
◎产  地 美国
◎类  别 动作 / 惊悚 / 犯罪
◎语  言 英语
◎上映日期 2020-09-03(丹麦) / 2020-10-16(美国)
◎IMDb评分  6/10 from 15658 users
◎  
◎豆瓣评分 5.7/10 from 3381 users
◎ 
◎片  长 99分钟
◎导  演 马克·威廉姆斯 Mark Williams
◎编  剧 史蒂夫·奥尔里奇 Steve Allrich / 马克·威廉姆斯 Mark Williams
◎主  演 连姆·尼森 Liam Neeson
       凯特·沃什 Kate Walsh
       杰·科特尼 Jai Courtney
       杰弗里·多诺万 Jeffrey Donovan
       安东尼·拉莫斯 Anthony Ramos
       罗伯特·帕特里克 Robert Patrick
       塔兹 Tazzie
       何塞·冈斯·阿尔维斯 Jose Guns Alves
       珍妮尔·费格利 Janelle Feigley
       德文·迪普 Devon Diep
       杰米·加扎里安 Jamie Ghazarian
       帕蒂·奥尼尔 Patty O'Neil
       阿德里安·M·蒙波因特 Adrian M. Mompoint
       安东尼·拉莫斯 Anthony Ramos
       雅斯曼·塞斯·琼斯 Jasmine Cephas Jones
       玛塞拉·贾拉米洛 Marcela Jaramillo

◎标  签 动作 | 犯罪 | 美国 | 2020 | 剧情 | 悬疑 | 人性 | 电影

◎简  介

  连姆·尼森、凯特·沃什将主演新片[诚实的小偷](The Honest Thief,暂译)。本片由马克·威廉姆斯执导,故事讲述职业银行劫匪汤姆·卡特(尼森饰)遇到了他一生的挚爱安妮(沃尔什饰)。他之前在安妮工作的前台藏了700万美元的赃物,现决定自首。当案件被交给一个奸诈的联邦调查局特工时,一切都变得更加危险和困难。
Video
ID                                       : 1
Format                                   : AVC
Format/Info                              : Advanced Video Codec
Format profile                           :
Format settings                          : CABAC / 5 Ref Frames
Format settings, CABAC                   : Yes
Format settings, Reference frames        : 5 frames
Codec ID                                 : V_MPEG4/ISO/AVC
Duration                                 : 1 h 39 min
Bit rate                                 : 11.5 Mb/s
Width                                    : 1 920 pixels
Height                                   : 804 pixels
Display aspect ratio                     : 2.40:1
Frame rate mode                          : Constant
Frame rate                               : 23.976 (24000/1001/189150) FPS
Color space                              : YUV
Chroma subsampling                       : 4:2:0
Bit depth                                : 8 bits
Scan type                                : Progressive
Bits/(Pixel*Frame)                       : 0.310
Stream size                              : 7.96 GiB (73%)
Writing library                          : x264 core 161 r3027 4121277
Encoding settings                        : cabac=1 / ref=5 / deblock=1:-3:-3 / analyse=0x3:0x133 / me=umh / subme=9 / psy=1 / psy_rd=1.00:0.00 / mixed_ref=1 / me_range=16 / chroma_me=1 / trellis=2 / 8x8dct=1 / cqm=0 / deadzone=21,11 / fast_pskip=1 / chroma_qp_offset=-2 / threads=25 / lookahead_threads=2 / sliced_threads=0 / nr=0 / decimate=1 / interlaced=0 / bluray_compat=0 / constrained_intra=0 / bframes=3 / b_pyramid=2 / b_adapt=2 / b_bias=0 / direct=3 / weightb=1 / open_gop=0 / weightp=2 / keyint=250 / keyint_min=23 / scenecut=40 / intra_refresh=0 / rc_lookahead=60 / rc=crf / mbtree=1 / crf=16.0 / qcomp=0.60 / qpmin=0 / qpmax=69 / qpstep=4 / ip_ratio=1.40 / aq=1:1.00
Language                                 : English
Default                                  : Yes
Forced                                   : No

Audio
ID                                       : 2
Format                                   : DTS XLL
Format/Info                              : Digital Theater Systems
Commercial name                          : DTS-HD Master Audio
Codec ID                                 : A_DTS
Duration                                 : 1 h 39 min
Bit rate mode                            : Variable
Bit rate                                 : 4 289 kb/s
Channel(s)                               : 8 channels
Channel layout                           : C L R LFE Lb Rb Lss Rss
Sampling rate                            : 48.0 kHz
Frame rate                               : 93.750 FPS (512 SPF)
Bit depth                                : 24 bits
Compression mode                         : Lossless
Stream size                              : 2.98 GiB (27%)
Language                                 : English
Default                                  : Yes
Forced                                   : No

Text #1
ID                                       : 3
Format                                   : PGS
Muxing mode                              : zlib
Codec ID                                 : S_HDMV/PGS
Codec ID/Info                            : Picture based subtitle format used on BDs/HD-DVDs
Duration                                 : 1 h 29 min
Bit rate                                 : 40.5 kb/s
Count of elements                        : 2714
Stream size                              : 25.9 MiB (0%)
Title                                    : English SDH
Language                                 : English
Default                                  : No
Forced                                   : No

Text #2
ID                                       : 4
Format                                   : PGS
Muxing mode                              : zlib
Codec ID                                 : S_HDMV/PGS
Codec ID/Info                            : Picture based subtitle format used on BDs/HD-DVDs
Duration                                 : 1 h 37 min
Bit rate                                 : 29.6 kb/s
Count of elements                        : 2336
Stream size                              : 20.7 MiB (0%)
Title                                    : Spanish
Language                                 : Spanish
Default                                  : No
Forced                                   : No

Menu
00:00:00.000                             : en:Chapter 01
00:05:03.803                             : en:Chapter 02
00:09:47.212                             : en:Chapter 03
00:15:27.343                             : en:Chapter 04
00:20:17.174                             : en:Chapter 05
00:25:35.659                             : en:Chapter 06
00:30:45.969                             : en:Chapter 07
00:35:29.836                             : en:Chapter 08
00:41:41.666                             : en:Chapter 09
00:46:24.573                             : en:Chapter 10
00:49:47.610                             : en:Chapter 11
00:55:11.642                             : en:Chapter 12
00:58:32.926                             : en:Chapter 13
01:04:19.856                             : en:Chapter 14
01:10:25.972                             : en:Chapter 15
01:14:56.367                             : en:Chapter 16
01:18:13.689                             : en:Chapter 17
01:20:09.263                             : en:Chapter 18
01:25:24.202                             : en:Chapter 19
01:30:43.855                             : en:Chapter 20
01:39:25.543                             : en:Chapter 21




                                                                                                                                                                                                        
                                                                                                                                                                                                                                                                                                                                                                                                                                                                                                                                                                                                                                                                                                                                                                                                                                                        
38a1ff9c0c1065515b67e94a524579fa.zip (55.5 KB, 下载次数: 0)

回复

使用道具 举报

小黑屋|百度云资源论坛 |网站地图

本网站所有资源来自网络,如无意中侵犯了您的权益,请发邮件至 [email protected],立即清除相关链接

GMT+8, 2021-1-23 10:06 , Processed in 0.101542 second(s), 26 queries .

Powered by Discuz! X3.2

© 2001-2013 Comsenz Inc.

快速回复 返回顶部 返回列表