百度云资源论坛

 找回密码
 立即注册
搜索

[BD-4K] 心灵奇旅/心灵 Soul.2020.HDR.2160p.WEB.H265-NAISU 15.94GB

[复制链接]
百度云电影 发表于 2020-12-26 10:19:09 | 显示全部楼层 |阅读模式
-->
帖子完整标题:心灵奇旅/心灵 Soul.2020.HDR.2160p.WEB.H265-NAISU 15.94GB




◎译  名 心灵奇旅/心灵/灵魂/灵魂奇遇记(港)/灵魂急转弯(台)
◎片  名 Soul
◎年  代 2020
◎产  地 美国
◎类  别 动画 / 音乐 / 奇幻
◎语  言 英语
◎上映日期 2020-10-11(伦敦电影节) / 2020-12-25(中国大陆/美国网络)
◎IMDb评分  7.8/10 from 712 users
◎  
◎豆瓣评分 9.2/10 from 1799 users
◎ 
◎片  长 101分钟
◎导  演 彼特·道格特 Pete Docter / 坎普·鲍尔斯 Kemp Powers
◎编  剧 彼特·道格特 Pete Docter / 麦克·琼斯 Mike Jones / 坎普·鲍尔斯 Kemp Powers
◎主  演 杰米·福克斯 Jamie Foxx
       蒂娜·菲 Tina Fey
       约翰·拉岑贝格 John Ratzenberger
       戴维德·迪格斯 Daveed Diggs
       菲利西亚·拉斯海德 Phylicia Rashad
       阿米尔-哈利卜·汤普森 Ahmir-Khalib Thompson

◎标  签 皮克斯 | 动画 | 迪士尼 | Pixar | 动画电影 | 美国 | 2020 | 〓PIXAR〓

◎简  介

  主角Gardner是一个生活很容易看穿的中学音乐老师,而他真正的梦想是弹钢琴——不是像他现在做的一样只教孩子们弹钢琴,而是以做音乐、做爵士乐来谋生。当他终于拿到人生第一份音乐人的工作,却不小心掉进了下水道“死”了,并在一个黑洞中醒来,成为了一个孤独的灵魂。
  
  不久,它发现自己不是独自一魂,而是到了YOU研讨会,另一个外号叫22的灵魂已经参加了研讨会数百年,它极度憎恨人类,一直未去附体。很快的,Gardner和22一起回到现实世界,在那里,Gardner将学会“有了灵魂”真正的含义。

◎获奖情况

  第73届戛纳电影节 ?(2020)
  动画片(提名)
  
  第46届洛杉矶影评人协会奖 ?(2020)
  最佳配乐 特伦特·雷诺?/?阿提喀斯·罗斯
  最佳动画片(提名)
  
  第33届芝加哥影评人协会奖 ?(2020)
  最佳原创剧本(提名) 麦克·琼斯?/?彼特·道格特?/?坎普·鲍尔斯
  最佳动画片(提名)
  最佳原创配乐 特伦特·雷诺?/?阿提喀斯·罗斯?/?乔纳森·巴蒂斯特
Video
ID                                       : 1
Format                                   : HEVC
Format/Info                              : High Efficiency Video Coding
Format profile                           : Main @Main
Codec ID                                 : V_MPEGH/ISO/HEVC
Duration                                 : 1 h 40 min
Bit rate                                 : 21.8 Mb/s
Width                                    : 3 840 pixels
Height                                   : 2 160 pixels
Display aspect ratio                     : 16:9
Frame rate mode                          : Constant
Frame rate                               : 23.976 (24000/1001/189150) FPS
Color space                              : YUV
Chroma subsampling                       : 4:2:0
Bit depth                                : 10 bits
Bits/(Pixel*Frame)                       : 0.110
Stream size                              : 15.3 GiB (97%)
Writing library                          : x265 3.4:[Linux][GCC 7.5.0][64 bit] 10bit
Encoding settings                        : cpuid=1111039 / frame-threads=1 / wpp / no-pmode / no-pme / no-psnr / no-ssim / log-level=2 / input-csp=1 / input-res=3840x2160 / interlace=0 / total-frames=0 / level-idc=50 / high-tier=0 / uhd-bd=0 / ref=3 / no-allow-non-conformance / repeat-headers / annexb / no-aud / no-hrd / info / hash=0 / no-temporal-layers / no-open-gop / min-keyint=48 / keyint=48 / gop-lookahead=0 / bframes=2 / b-adapt=0 / b-pyramid / bframe-bias=0 / rc-lookahead=48 / lookahead-slices=8 / scenecut=0 / hist-scenecut=0 / radl=0 / no-splice / no-intra-refresh / ctu=32 / min-cu-size=8 / no-rect / no-amp / max-tu-size=16 / tu-inter-depth=2 / tu-intra-depth=2 / limit-tu=0 / rdoq-level=1 / dynamic-rd=0.00 / no-ssim-rd / signhide / no-tskip / nr-intra=0 / nr-inter=0 / no-constrained-intra / no-strong-intra-smoothing / max-merge=3 / limit-refs=1 / no-limit-modes / me=1 / subme=2 / merange=44 / temporal-mvp / no-frame-dup / no-hme / weightp / no-weightb / no-analyze-src-pics / deblock=0:0 / no-sao / no-sao-non-deblock / rd=4 / selective-sao=0 / early-skip / rskip / no-fast-intra / no-tskip-fast / no-cu-lossless / b-intra / no-splitrd-skip / rdpenalty=1 / psy-rd=1.60 / psy-rdoq=5.00 / no-rd-refine / no-lossless / cbqpoffs=0 / crqpoffs=0 / rc=abr / bitrate=23000 / qcomp=0.75 / qpstep=4 / stats-write=0 / stats-read=0 / vbv-maxrate=25000 / vbv-bufsize=25000 / vbv-init=0.9 / ipratio=1.40 / pbratio=1.30 / aq-mode=3 / aq-strength=1.00 / no-cutree / zone-count=0 / no-strict-cbr / qg-size=32 / no-rc-grain / qpmax=69 / qpmin=0 / no-const-vbv / sar=1 / overscan=0 / videoformat=5 / range=0 / colorprim=9 / transfer=16 / colormatrix=9 / chromaloc=0 / display-window=0 / cll=0,0 / min-luma=0 / max-luma=1023 / log2-max-poc-lsb=8 / vui-timing-info / vui-hrd-info / slices=1 / no-opt-qp-pps / no-opt-ref-list-length-pps / no-multi-pass-opt-rps / scenecut-bias=0.00 / hist-threshold=0.01 / no-opt-cu-delta-qp / no-aq-motion / no-hdr10 / hdr10-opt / no-dhdr10-opt / no-idr-recovery-sei / analysis-reuse-level=0 / analysis-save-reuse-level=0 / analysis-load-reuse-level=0 / scale-factor=0 / refine-intra=0 / refine-inter=0 / refine-mv=1 / refine-ctu-distortion=0 / no-limit-sao / ctu-info=0 / no-lowpass-dct / refine-analysis-type=0 / copy-pic=1 / max-ausize-factor=1.0 / no-dynamic-refine / no-single-sei / no-hevc-aq / no-svt / no-field / qp-adaptation-range=1.00 / no-scenecut-aware-qpconformance-window-offsets / right=0 / bottom=0
Default                                  : Yes
Forced                                   : No
Color range                              : Limited
Color primaries                          : BT.2020
Transfer characteristics                 : PQ
Matrix coefficients                      : BT.2020 non-constant

Audio
ID                                       : 2
Format                                   : E-AC-3
Format/Info                              : Enhanced AC-3
Commercial name                          : Dolby Digital Plus
Codec ID                                 : A_EAC3
Duration                                 : 1 h 40 min
Bit rate mode                            : Constant
Bit rate                                 : 192 kb/s
Channel(s)                               : 6 channels
Channel layout                           : L R C LFE Ls Rs
Sampling rate                            : 48.0 kHz
Frame rate                               : 31.250 FPS (1536 SPF)
Compression mode                         : Lossy
Stream size                              : 138 MiB (1%)
Language                                 : English
Service kind                             : Complete Main
Default                                  : Yes
Forced                                   : No

Text #1
ID                                       : 3
Format                                   : UTF-8
Codec ID                                 : S_TEXT/UTF8
Codec ID/Info                            : UTF-8 Plain Text
Language                                 : English
Default                                  : No
Forced                                   : No

Text #2
ID                                       : 4
Format                                   : UTF-8
Codec ID                                 : S_TEXT/UTF8
Codec ID/Info                            : UTF-8 Plain Text
Language                                 : Indonesian
Default                                  : No
Forced                                   : No




                                                                                                                                                                                                        
                                                                                                                                                                                                                                                                                                                                                                                                                                                                                                                                                                                                                                                                                                                                                                                                                                                        
f2847ab1622930bc4b9dd5fce8f0c253.zip (81.57 KB, 下载次数: 0)

回复

使用道具 举报

小黑屋|百度云资源论坛 |网站地图

本网站所有资源来自网络,如无意中侵犯了您的权益,请发邮件至 [email protected],立即清除相关链接

GMT+8, 2021-1-23 16:37 , Processed in 0.107819 second(s), 23 queries .

Powered by Discuz! X3.2

© 2001-2013 Comsenz Inc.

快速回复 返回顶部 返回列表