百度云资源论坛

 找回密码
 立即注册
搜索

[4K-原盘] 极限网红 No.Escape.2020.2160p.BluRay.REMUX.HEVC.DTS-HD.MA.5.1-FGT 54.66GB

[复制链接]
百度云电影 发表于 2020-12-23 12:25:44 | 显示全部楼层 |阅读模式
帖子完整标题:极限网红 No.Escape.2020.2160p.BluRay.REMUX.HEVC.DTS-HD.MA.5.1-FGT 54.66GB




◎译  名 极限网红/No Escape/密弒直播(台)/无处可逃/玩命直播(港)/跟我来/跟着我
◎片  名 Follow Me
◎年  代 2020
◎产  地 美国
◎类  别 惊悚 / 恐怖
◎语  言 英语,俄语 Russian
◎上映日期 2020-07-11(德国幻想电影节) / 2020-09-18(美国)
◎IMDb评分  5.4/10 from 4659 users
◎  
◎豆瓣评分 5.9/10 from 1910 users
◎ 
◎片  长 92分钟
◎主  演 罗南·鲁宾斯坦 Ronen Rubinstein
       霍兰·罗登 Holland Roden
       丹泽尔·惠特克 Denzel Whitaker
       金贝利·奎恩 Kimberly Quinn
       基根·艾伦 Keegan Allen

◎标  签 惊悚 | 恐怖 | 美国 | 逃杀 | 悬疑 | 2020 | 犯罪 | 美国电影

◎简  介

  一个社交媒体人物与他的朋友一起前往莫斯科,以获取他成功的VLOG的新内容。他们总是不断挑战极限,迎合不断增长的受众,他们进入了一个充满神秘,过度和危险的寒冷世界。当现实生活与社交媒体之间的界线变得模糊时,该组织必须为逃避和生存而战。
Video
ID                                       : 1
ID in the original source medium         : 4113 (0x1011)
Format                                   : HEVC
Format/Info                              : High Efficiency Video Coding
Format profile                           : Main @High
HDR format                               : SMPTE ST 2094 App 4, Version 1, HDR10+ Profile B compatible
Codec ID                                 : V_MPEGH/ISO/HEVC
Duration                                 : 1 h 31 min
Bit rate                                 : 81.0 Mb/s
Width                                    : 3 840 pixels
Height                                   : 2 160 pixels
Display aspect ratio                     : 16:9
Frame rate mode                          : Constant
Frame rate                               : 23.976 (24000/1001/189150) FPS
Color space                              : YUV
Chroma subsampling                       : 4:2:0 (Type 2)
Bit depth                                : 10 bits
Bits/(Pixel*Frame)                       : 0.407
Stream size                              : 52.0 GiB (95%)
Language                                 : English
Default                                  : No
Forced                                   : No
Color range                              : Limited
Color primaries                          : BT.2020
Transfer characteristics                 : PQ
Matrix coefficients                      : BT.2020 non-constant
Mastering display color primaries        : Display P3
Mastering display luminance              : min: 0.0001 cd/m2, max: 1000 cd/m2
Maximum Content Light Level              : 2948 cd/m2
Maximum Frame-Average Light Level        : 329 cd/m2
Original source medium                   : Blu-ray

Audio #1
ID                                       : 2
ID in the original source medium         : 4353 (0x1101)
Format                                   : DTS XLL
Format/Info                              : Digital Theater Systems
Commercial name                          : DTS-HD Master Audio
Codec ID                                 : A_DTS
Duration                                 : 1 h 31 min
Bit rate mode                            : Variable
Bit rate                                 : 1 923 kb/s
Channel(s)                               : 6 channels
Channel layout                           : C L R Ls Rs LFE
Sampling rate                            : 48.0 kHz
Frame rate                               : 93.750 FPS (512 SPF)
Bit depth                                : 16 bits
Compression mode                         : Lossless
Stream size                              : 1.23 GiB (2%)
Title                                    : DTS-HD MA 5.1
Language                                 : English
Default                                  : Yes
Forced                                   : No
Original source medium                   : Blu-ray

Audio #2
ID                                       : 3
ID in the original source medium         : 4352 (0x1100)
Format                                   : DTS XLL
Format/Info                              : Digital Theater Systems
Commercial name                          : DTS-HD Master Audio
Codec ID                                 : A_DTS
Duration                                 : 1 h 31 min
Bit rate mode                            : Variable
Bit rate                                 : 2 236 kb/s
Channel(s)                               : 6 channels
Channel layout                           : C L R Ls Rs LFE
Sampling rate                            : 48.0 kHz
Frame rate                               : 93.750 FPS (512 SPF)
Bit depth                                : 16 bits
Compression mode                         : Lossless
Stream size                              : 1.43 GiB (3%)
Title                                    : DTS-HD MA 5.1
Language                                 : German
Default                                  : No
Forced                                   : No
Original source medium                   : Blu-ray

Text #1
ID                                       : 4
Format                                   : UTF-8
Codec ID                                 : S_TEXT/UTF8
Codec ID/Info                            : UTF-8 Plain Text
Duration                                 : 1 h 26 min
Bit rate                                 : 56 b/s
Count of elements                        : 1332
Stream size                              : 35.8 KiB (0%)
Title                                    : English-SRT
Language                                 : English
Default                                  : Yes
Forced                                   : No

Text #2
ID                                       : 5
ID in the original source medium         : 4768 (0x12A0)
Format                                   : PGS
Muxing mode                              : zlib
Codec ID                                 : S_HDMV/PGS
Codec ID/Info                            : Picture based subtitle format used on BDs/HD-DVDs
Duration                                 : 1 h 26 min
Bit rate                                 : 40.1 kb/s
Count of elements                        : 2764
Stream size                              : 24.9 MiB (0%)
Title                                    : German-PGS
Language                                 : German
Default                                  : No
Forced                                   : No
Original source medium                   : Blu-ray

Text #3
ID                                       : 6
ID in the original source medium         : 4769 (0x12A1)
Format                                   : PGS
Muxing mode                              : zlib
Codec ID                                 : S_HDMV/PGS
Codec ID/Info                            : Picture based subtitle format used on BDs/HD-DVDs
Duration                                 : 1 h 23 min
Bit rate                                 : 142 b/s
Count of elements                        : 8
Stream size                              : 87.2 KiB (0%)
Title                                    : German-FORCED-PGS
Language                                 : German
Default                                  : No
Forced                                   : No
Original source medium                   : Blu-ray

Menu
00:00:00.000                             : en:Chapter 01
00:07:54.849                             : en:Chapter 02
00:16:39.415                             : en:Chapter 03
00:26:26.793                             : en:Chapter 04
00:32:04.631                             : en:Chapter 05
00:41:22.062                             : en:Chapter 06
00:48:31.867                             : en:Chapter 07
00:55:21.943                             : en:Chapter 08
01:02:20.278                             : en:Chapter 09
01:09:55.232                             : en:Chapter 10
01:16:01.932                             : en:Chapter 11
01:23:11.778                             : en:Chapter 12




                                                                                                                                                                                                        
                                                                                                                                                                                                                                                                                                                                                                                                                                                                                                                                                                                                                                                                                                                                                                                                                                                        
3d054453438a0e3f2510da2687ed671c.zip (137.34 KB, 下载次数: 0)

回复

使用道具 举报

小黑屋|百度云资源论坛 |网站地图

本网站所有资源来自网络,如无意中侵犯了您的权益,请发邮件至 [email protected],立即清除相关链接

GMT+8, 2021-1-28 10:47 , Processed in 0.097865 second(s), 23 queries .

Powered by Discuz! X3.2

© 2001-2013 Comsenz Inc.

快速回复 返回顶部 返回列表