百度云资源论坛

 找回密码
 立即注册
搜索

[4K-原盘] 兽王伏魔/万兽之王 The.Beastmaster.1982.2160p.BluRay.REMUX.HEVC.DTS-HD...

[复制链接]
百度云电影 发表于 2020-12-19 08:34:32 | 显示全部楼层 |阅读模式
-->
帖子完整标题:兽王伏魔/万兽之王 The.Beastmaster.1982.2160p.BluRay.REMUX.HEVC.DTS-HD.MA.5.1-FGT 83.04GB




◎译  名 兽王伏魔/万兽之王/魔诫奇兵
◎片  名 The Beastmaster
◎年  代 1982
◎产  地 美国,西德
◎类  别 动作 / 奇幻 / 冒险
◎语  言 英语
◎上映日期 1982-08-20
◎IMDb评分  6.2/10 from 20393 users
◎  
◎豆瓣评分 6.9/10 from 106 users
◎ 
◎片  长 118 分钟
◎导  演 唐·柯斯卡莱利 Don Coscarelli
◎编  剧 Paul Pepperman / 唐·柯斯卡莱利 Don Coscarelli / 安德丽·诺顿 Andre Norton
◎主  演 马克·辛格 Marc Singer
       坦娅·罗伯茨 Tanya Roberts
       雷普·汤恩 Rip Torn
       Ralph Strait
       Monty L. Simons
       Jeremy Whelan
       约翰·阿莫斯 John Amos
       Bruce Paul Barbour
       埃迪·多诺 Eddy Donno
       弗雷迪·海斯 Freddie Hice
       保罗·雷诺兹 Paul Reynolds
       Larry Randles
       万娜·邦塔 Vanna Bonta
       Janet DeMay
       Diamond Farnsworth
       比利·汉克·胡克 Billy Hank Hooker
       本·哈默 Ben Hammer
       Chuck Hicks
       珍妮特·琼斯 Janet Jones
       比利·詹 Billy Jayne
       Joshua Milrad
       罗德·卢米斯 Rod Loomis
       Tommy J. Huff

◎标  签 电影 | 奇幻 | 美国电影 | 冒险 | 魔幻 | 美国 | 动作 | 1982

◎简  介

  上古洪荒时代,流传著神奇的冒险故事。“万兽王”达尔即是这个时代的英雄。
  
  达尔出生皇室,却被巫师亚刚追杀,流落民间。他成人不久,养父就被野蛮人杀死,但他也发现了他能与动物交流的能力。
  
  同时,他必须阻止巫师亚刚拿到“布朗斯之眼”。因为一 旦亚刚拿到此颗宝石,邪魔恶神布朗斯将重返人间,助亚刚王为恶,荼毒生灵。为了取得布朗斯的魔力,亚刚绑架了达尔的亲兄弟——泰尔王,兄弟情深的达尔誓言救回兄弟,为父报仇,他带领著忠心的动物军队以及军师塞斯向亚刚王宣战。达尔将和这位神秘没测的魔头刀锋相对决一死战。
Video
ID                                       : 1
ID in the original source medium         : 4113 (0x1011)
Format                                   : HEVC
Format/Info                              : High Efficiency Video Coding
Format profile                           : Main @High
HDR format                               : SMPTE ST 2086, HDR10 compatible
Codec ID                                 : V_MPEGH/ISO/HEVC
Duration                                 : 1 h 58 min
Bit rate                                 : 93.7 Mb/s
Width                                    : 3 840 pixels
Height                                   : 2 160 pixels
Display aspect ratio                     : 16:9
Frame rate mode                          : Constant
Frame rate                               : 23.976 (24000/1001/189150) FPS
Color space                              : YUV
Chroma subsampling                       : 4:2:0 (Type 2)
Bit depth                                : 10 bits
Bits/(Pixel*Frame)                       : 0.471
Stream size                              : 77.5 GiB (93%)
Language                                 : English
Default                                  : Yes
Forced                                   : No
Color range                              : Limited
Color primaries                          : BT.2020
Transfer characteristics                 : PQ
Matrix coefficients                      : BT.2020 non-constant
Mastering display color primaries        : BT.2020
Mastering display luminance              : min: 0.0001 cd/m2, max: 1000 cd/m2
Maximum Content Light Level              : 1000 cd/m2
Maximum Frame-Average Light Level        : 400 cd/m2
Original source medium                   : Blu-ray

Audio #1
ID                                       : 2
ID in the original source medium         : 4353 (0x1101)
Format                                   : DTS XLL
Format/Info                              : Digital Theater Systems
Commercial name                          : DTS-HD Master Audio
Codec ID                                 : A_DTS
Duration                                 : 1 h 58 min
Bit rate mode                            : Variable
Bit rate                                 : 3 516 kb/s
Channel(s)                               : 6 channels
Channel layout                           : C L R Ls Rs LFE
Sampling rate                            : 48.0 kHz
Frame rate                               : 93.750 FPS (512 SPF)
Bit depth                                : 24 bits
Compression mode                         : Lossless
Stream size                              : 2.91 GiB (4%)
Title                                    : DTS-HD MA 5.1
Language                                 : English
Default                                  : Yes
Forced                                   : No
Original source medium                   : Blu-ray

Audio #2
ID                                       : 3
Format                                   : AC-3
Format/Info                              : Audio Coding 3
Commercial name                          : Dolby Digital
Codec ID                                 : A_AC3
Duration                                 : 1 h 58 min
Bit rate mode                            : Constant
Bit rate                                 : 640 kb/s
Channel(s)                               : 6 channels
Channel layout                           : L R C LFE Ls Rs
Sampling rate                            : 48.0 kHz
Frame rate                               : 31.250 FPS (1536 SPF)
Compression mode                         : Lossy
Stream size                              : 542 MiB (1%)
Title                                    : DD 5.1
Language                                 : English
Service kind                             : Complete Main
Default                                  : No
Forced                                   : No

Audio #3
ID                                       : 4
ID in the original source medium         : 4352 (0x1100)
Format                                   : DTS XLL
Format/Info                              : Digital Theater Systems
Commercial name                          : DTS-HD Master Audio
Codec ID                                 : A_DTS
Duration                                 : 1 h 58 min
Bit rate mode                            : Variable
Bit rate                                 : 2 126 kb/s
Channel(s)                               : 2 channels
Channel layout                           : L R
Sampling rate                            : 48.0 kHz
Frame rate                               : 93.750 FPS (512 SPF)
Bit depth                                : 24 bits
Compression mode                         : Lossless
Stream size                              : 1.76 GiB (2%)
Title                                    : DTS-HD MA 2.0
Language                                 : English
Default                                  : No
Forced                                   : No
Original source medium                   : Blu-ray

Audio #4
ID                                       : 5
ID in the original source medium         : 4354 (0x1102)
Format                                   : AC-3
Format/Info                              : Audio Coding 3
Commercial name                          : Dolby Digital
Codec ID                                 : A_AC3
Duration                                 : 1 h 58 min
Bit rate mode                            : Constant
Bit rate                                 : 192 kb/s
Channel(s)                               : 2 channels
Channel layout                           : L R
Sampling rate                            : 48.0 kHz
Frame rate                               : 31.250 FPS (1536 SPF)
Compression mode                         : Lossy
Stream size                              : 163 MiB (0%)
Title                                    : DD 2.0
Language                                 : English
Service kind                             : Complete Main
Default                                  : No
Forced                                   : No
Original source medium                   : Blu-ray

Audio #5
ID                                       : 6
ID in the original source medium         : 4355 (0x1103)
Format                                   : AC-3
Format/Info                              : Audio Coding 3
Commercial name                          : Dolby Digital
Codec ID                                 : A_AC3
Duration                                 : 1 h 58 min
Bit rate mode                            : Constant
Bit rate                                 : 192 kb/s
Channel(s)                               : 2 channels
Channel layout                           : L R
Sampling rate                            : 48.0 kHz
Frame rate                               : 31.250 FPS (1536 SPF)
Compression mode                         : Lossy
Stream size                              : 163 MiB (0%)
Title                                    : DD 2.0
Language                                 : English
Service kind                             : Complete Main
Default                                  : No
Forced                                   : No
Original source medium                   : Blu-ray

Text #1
ID                                       : 7
Format                                   : UTF-8
Codec ID                                 : S_TEXT/UTF8
Codec ID/Info                            : UTF-8 Plain Text
Duration                                 : 1 h 50 min
Bit rate                                 : 10 b/s
Count of elements                        : 435
Stream size                              : 8.14 KiB (0%)
Title                                    : English-SRT
Language                                 : English
Default                                  : Yes
Forced                                   : No

Text #2
ID                                       : 8
ID in the original source medium         : 4768 (0x12A0)
Format                                   : PGS
Muxing mode                              : zlib
Codec ID                                 : S_HDMV/PGS
Codec ID/Info                            : Picture based subtitle format used on BDs/HD-DVDs
Duration                                 : 1 h 55 min
Bit rate                                 : 12.4 kb/s
Count of elements                        : 2056
Stream size                              : 10.2 MiB (0%)
Title                                    : English-PGS
Language                                 : English
Default                                  : No
Forced                                   : No
Original source medium                   : Blu-ray

Menu
00:00:00.000                             : en:Chapter 01
00:22:02.529                             : en:Chapter 02
00:43:14.174                             : en:Chapter 03
01:03:40.399                             : en:Chapter 04
01:22:04.210                             : en:Chapter 05
01:41:54.650                             : en:Chapter 06




                                                                                                                                                                                                        
                                                                                                                                                                                                                                                                                                                                                                                                                                                                                                                                                                                                                                                                                                                                                                                                                                                        
9be73947daa42c87748d7391c74e12e1.zip (208.32 KB, 下载次数: 0)

回复

使用道具 举报

小黑屋|百度云资源论坛 |网站地图

本网站所有资源来自网络,如无意中侵犯了您的权益,请发邮件至 [email protected],立即清除相关链接

GMT+8, 2021-1-28 11:20 , Processed in 0.098406 second(s), 23 queries .

Powered by Discuz! X3.2

© 2001-2013 Comsenz Inc.

快速回复 返回顶部 返回列表