百度云资源论坛

 找回密码
 立即注册
搜索

[BD-4K] 蝙蝠侠与比尔/蝙蝠俠:無名之父 Batman.and.Bill.2017.2160p.HULU.WEB...

[复制链接]
百度云资源 发表于 2020-11-22 09:55:25 | 显示全部楼层 |阅读模式
-->
帖子完整标题:蝙蝠侠与比尔/蝙蝠俠:無名之父 Batman.and.Bill.2017.2160p.HULU.WEBRip.x265.10bit.SDR.DTS-HD.MA.5.1-TEPES 8.96GB


[/url]

◎译  名 蝙蝠侠与比尔/蝙蝠俠:無名之父(台)
◎片  名 Batman and Bill
◎年  代 2017
◎产  地 美国
◎类  别 动画 / 悬疑 / 纪录片
◎语  言 英语
◎上映日期 2017-05-06(美国)
◎IMDb评分  8/10 from 1560 users
◎  
◎豆瓣评分 8.9/10 from 74 users
◎ 
◎片  长 93分钟

◎标  签 纪录片 | DC | 美国 | Documentary | 2017 | 黑暗騎士 | 超級英雄 | Comics

◎简  介

  大家都知道DC漫畫裡,布魯斯韋恩是蝙蝠俠的真實身份,但他的真實創造者始終是個真正的謎。所有人都認為是鮑勃凱恩創造了蝙蝠俠,但還有另一位蝙蝠俠創作者的功績被歷史給埋沒。他並沒有戴著面具和斗篷,身分卻比蝙蝠俠還要神秘。
Video
ID                                       : 1
Format                                   : HEVC
Format/Info                              : High Efficiency Video Coding
Format profile                           : Main @Main
Codec ID                                 : V_MPEGH/ISO/HEVC
Duration                                 : 1 h 32 min
Bit rate                                 : 12.0 Mb/s
Width                                    : 3 840 pixels
Height                                   : 2 160 pixels
Display aspect ratio                     : 16:9
Frame rate mode                          : Constant
Frame rate                               : 23.976 (24000/1001/189150) FPS
Color space                              : YUV
Chroma subsampling                       : 4:2:0
Bit depth                                : 10 bits
Bits/(Pixel*Frame)                       : 0.061
Stream size                              : 7.82 GiB (87%)
Default                                  : Yes
Forced                                   : No

Audio
ID                                       : 2
Format                                   : DTS XLL
Format/Info                              : Digital Theater Systems
Commercial name                          : DTS-HD Master Audio
Codec ID                                 : A_DTS
Duration                                 : 1 h 32 min
Bit rate mode                            : Variable
Bit rate                                 : 1 747 kb/s
Channel(s)                               : 6 channels
Channel layout                           : C L R Ls Rs LFE
Sampling rate                            : 48.0 kHz
Frame rate                               : 93.750 FPS (512 SPF)
Bit depth                                : 16 bits
Compression mode                         : Lossless
Delay relative to video                  : 89 ms
Stream size                              : 1.13 GiB (13%)
Default                                  : Yes
Forced                                   : No

Text #1
ID                                       : 3
Format                                   : UTF-8
Codec ID                                 : S_TEXT/UTF8
Codec ID/Info                            : UTF-8 Plain Text
Duration                                 : 1 h 32 min
Bit rate                                 : 105 b/s
Count of elements                        : 2152
Stream size                              : 71.9 KiB (0%)
Language                                 : English
Default                                  : No
Forced                                   : No

Text #2
ID                                       : 4
Format                                   : UTF-8
Codec ID                                 : S_TEXT/UTF8
Codec ID/Info                            : UTF-8 Plain Text
Duration                                 : 1 h 32 min
Bit rate                                 : 122 b/s
Count of elements                        : 2238
Stream size                              : 83.6 KiB (0%)
Language                                 : Spanish
Default                                  : No
Forced                                   : No




                                                                                                                                                                                                        
                                                                                                                                                                                                                                                                                                                                                                                                                                                                                                                                                                                                                                                                                                                                                                                                                                                        
9e9ebdc20983c3aaefaaf9dcd235e5f7.zip (45.53 KB, 下载次数: 0)

回复

使用道具 举报

小黑屋|百度云资源论坛 |网站地图

本网站所有资源来自网络,如无意中侵犯了您的权益,请发邮件至 [email protected],立即清除相关链接

GMT+8, 2020-12-5 13:16 , Processed in 0.110744 second(s), 23 queries .

Powered by Discuz! X3.2

© 2001-2013 Comsenz Inc.

快速回复 返回顶部 返回列表