百度云资源论坛

 找回密码
 立即注册
搜索

特拉·威利:未知星球 Terra.Willy.Planete.Inconnue.2019.FRENCH.1080p.Blu... ...

[复制链接]
百度云资源 发表于 2020-11-22 09:14:32 | 显示全部楼层 |阅读模式
-->
帖子完整标题:特拉·威利:未知星球 Terra.Willy.Planete.Inconnue.2019.FRENCH.1080p.BluRay.x264.DD5.1-BdC 6.10GB


[/url]

◎译  名 特拉·威利:未知星球/Astro Kid/威利的异星大冒险(台)
◎片  名 Terra Willy: Planète inconnue
◎年  代 2019
◎产  地 法国
◎类  别 喜剧 / 动画
◎语  言 法语
◎上映日期 2019-02-13(法国)
◎IMDb评分  6.6/10 from 1222 users
◎  
◎豆瓣评分 7.3/10 from 90 users
◎ 
◎片  长 90分钟
◎导  演 埃里克托斯蒂 Eric Tosti
◎编  剧 大卫阿拉克斯 David Alaux / 埃里克托斯蒂 Eric Tosti / 让·弗朗索瓦·托斯蒂 Jean-Fran?ois Tosti
◎主  演 埃德瓦·贝耶 Edouard Baer
       芭芭拉·蒂西耶 Barbara Tissier
       兰登·比提 Landen Beattie

◎标  签 2019 | 法国 | 动画片 | 冒险 | 奇幻 | 动画 | 2019北京国际电影节 | G法国

◎简  介

  在飞船被毁之后,威利的救生舱降落在一个看似荒无人烟的星球上。在生存机器人巴克的帮助下,威利必须坚持等待救援队的到来。与此同时,威利、巴克和他们新交的外星朋友弗莱什开始探索这个星球。然而,星球上除了美丽的风景,还潜藏着巨大的危险。
Video
ID                                       : 1
Format                                   : AVC
Format/Info                              : Advanced Video Codec
Format profile                           :
Format settings                          : CABAC / 5 Ref Frames
Format settings, CABAC                   : Yes
Format settings, Reference frames        : 5 frames
Codec ID                                 : V_MPEG4/ISO/AVC
Duration                                 : 1 h 29 min
Bit rate                                 : 9 099 kb/s
Width                                    : 1 920 pixels
Height                                   : 804 pixels
Display aspect ratio                     : 2.40:1
Frame rate mode                          : Constant
Frame rate                               : 24.000 FPS
Color space                              : YUV
Chroma subsampling                       : 4:2:0
Bit depth                                : 8 bits
Scan type                                : Progressive
Bits/(Pixel*Frame)                       : 0.246
Stream size                              : 5.70 GiB (93%)
Writing library                          : x264 core 160 r3000 33f9e14
Encoding settings                        : cabac=1 / ref=5 / deblock=1:-3:-3 / analyse=0x3:0x133 / me=umh / subme=11 / psy=1 / psy_rd=1.05:0.00 / mixed_ref=1 / me_range=32 / chroma_me=1 / trellis=2 / 8x8dct=1 / cqm=0 / deadzone=21,11 / fast_pskip=0 / chroma_qp_offset=-2 / threads=12 / lookahead_threads=2 / sliced_threads=0 / nr=0 / decimate=0 / interlaced=0 / bluray_compat=0 / constrained_intra=0 / bframes=9 / b_pyramid=2 / b_adapt=2 / b_bias=0 / direct=3 / weightb=1 / open_gop=0 / weightp=2 / keyint=240 / keyint_min=24 / scenecut=40 / intra_refresh=0 / rc_lookahead=60 / rc=2pass / mbtree=0 / bitrate=9099 / ratetol=1.0 / qcomp=0.65 / qpmin=0 / qpmax=69 / qpstep=4 / cplxblur=20.0 / qblur=0.5 / vbv_maxrate=50000 / vbv_bufsize=62500 / nal_hrd=none / filler=0 / ip_ratio=1.40 / pb_ratio=1.30 / aq=3:0.80
Default                                  : Yes
Forced                                   : No
Color range                              : Limited
Color primaries                          : BT.709
Transfer characteristics                 : BT.709
Matrix coefficients                      : BT.709

Audio
ID                                       : 2
Format                                   : AC-3
Format/Info                              : Audio Coding 3
Commercial name                          : Dolby Digital
Codec ID                                 : A_AC3
Duration                                 : 1 h 29 min
Bit rate mode                            : Constant
Bit rate                                 : 640 kb/s
Channel(s)                               : 6 channels
Channel layout                           : L R C LFE Ls Rs
Sampling rate                            : 48.0 kHz
Frame rate                               : 31.250 FPS (1536 SPF)
Compression mode                         : Lossy
Stream size                              : 410 MiB (7%)
Language                                 : French
Service kind                             : Complete Main
Default                                  : Yes
Forced                                   : No

Text #1
ID                                       : 3
Format                                   : UTF-8
Codec ID                                 : S_TEXT/UTF8
Codec ID/Info                            : UTF-8 Plain Text
Duration                                 : 1 h 23 min
Bit rate                                 : 30 b/s
Count of elements                        : 802
Stream size                              : 19.0 KiB (0%)
Language                                 : English
Default                                  : No
Forced                                   : No

Text #2
ID                                       : 4
Format                                   : UTF-8
Codec ID                                 : S_TEXT/UTF8
Codec ID/Info                            : UTF-8 Plain Text
Duration                                 : 1 h 25 min
Bit rate                                 : 33 b/s
Count of elements                        : 592
Stream size                              : 20.9 KiB (0%)
Language                                 : Spanish
Default                                  : No
Forced                                   : No

Menu
00:00:00.000                             : en:00:00:00.000
00:07:01.083                             : en:00:07:01.083
00:15:56.792                             : en:00:15:56.792
00:21:24.542                             : en:00:21:24.542
00:30:23.208                             : en:00:30:23.208
00:38:15.208                             : en:00:38:15.208
00:46:19.958                             : en:00:46:19.958
00:52:59.583                             : en:00:52:59.583
01:01:29.208                             : en:01:01:29.208
01:09:12.542                             : en:01:09:12.542
01:16:09.083                             : en:01:16:09.083
01:23:40.083                             : en:01:23:40.083
[/url][/url][/url]



                                                                                                                                                                                                        
                                                                                                                                                                                                                                                                                                                                                                                                                                                                                                                                                                                                                                                                                                                                                                                                                                                        
9a55916f9fa2e39eaae7c320217498e8.zip (31.23 KB, 下载次数: 0)

回复

使用道具 举报

小黑屋|百度云资源论坛 |网站地图

本网站所有资源来自网络,如无意中侵犯了您的权益,请发邮件至 [email protected],立即清除相关链接

GMT+8, 2020-12-3 02:50 , Processed in 0.116900 second(s), 23 queries .

Powered by Discuz! X3.2

© 2001-2013 Comsenz Inc.

快速回复 返回顶部 返回列表