百度云资源论坛

 找回密码
 立即注册
搜索

阿拉伯布鲁斯 Arab.Blues.2019.FRENCH.1080p.BluRay.x264.DTS-EDPH 11.43GB

[复制链接]
百度云资源 发表于 2020-11-22 09:14:32 | 显示全部楼层 |阅读模式
-->
帖子完整标题:阿拉伯布鲁斯 Arab.Blues.2019.FRENCH.1080p.BluRay.x264.DTS-EDPH 11.43GB


[/url]

◎译  名 阿拉伯布鲁斯/Arab Blues
◎片  名 Un divan à Tunis
◎年  代 2019
◎产  地 法国,突尼斯
◎类  别 剧情 / 喜剧
◎语  言 法语,阿拉伯语
◎上映日期 2019-09-02(威尼斯电影节)
◎IMDb评分  6.2/10 from 1190 users
◎  
◎豆瓣评分 /10 from 0 users
◎ 
◎片  长 88分钟
◎导  演 Manele Labidi Labbé
◎主  演 格什菲·法拉哈尼 Golshifteh Farahani
       马吉德·马斯图拉 Majd Mastoura

◎标  签 法国 | 突尼斯 | 法国电影 | 女性 | 2019 | 阿拉伯 | 己亥 | 成长

◎简  介

  Selma, a psychoanalyst, leaves Paris and returns to her hometown in Tunisia to open a small psychiatric clinic. However, as a series of not-so-funny difficulties occur from the first day. Another work to find Golshifteh FARAHANI’S charm who starred in Paterson.

◎获奖情况

  第76届威尼斯电影节 ?(2019)
  欧洲电影联盟奖威尼斯日最佳影片(提名) ManeleLabidiLabbé
Video
ID                                       : 1
Format                                   : AVC
Format/Info                              : Advanced Video Codec
Format profile                           :
Format settings                          : CABAC / 5 Ref Frames
Format settings, CABAC                   : Yes
Format settings, Reference frames        : 5 frames
Codec ID                                 : V_MPEG4/ISO/AVC
Duration                                 : 1 h 27 min
Bit rate                                 : 17.0 Mb/s
Width                                    : 1 920 pixels
Height                                   : 800 pixels
Display aspect ratio                     : 2.40:1
Frame rate mode                          : Constant
Frame rate                               : 23.976 (24000/1001/189150) FPS
Color space                              : YUV
Chroma subsampling                       : 4:2:0
Bit depth                                : 8 bits
Scan type                                : Progressive
Bits/(Pixel*Frame)                       : 0.462
Stream size                              : 10.4 GiB (91%)
Writing library                          : x264 core 160 r3009 4c9b076
Encoding settings                        : cabac=1 / ref=5 / deblock=1:-3:-3 / analyse=0x3:0x133 / me=umh / subme=11 / psy=1 / psy_rd=1.00:0.00 / mixed_ref=1 / me_range=32 / chroma_me=1 / trellis=2 / 8x8dct=1 / cqm=0 / deadzone=21,11 / fast_pskip=0 / chroma_qp_offset=-2 / threads=25 / lookahead_threads=6 / sliced_threads=0 / nr=0 / decimate=0 / interlaced=0 / bluray_compat=0 / constrained_intra=0 / bframes=10 / b_pyramid=2 / b_adapt=2 / b_bias=0 / direct=3 / weightb=1 / open_gop=0 / weightp=2 / keyint=250 / keyint_min=23 / scenecut=40 / intra_refresh=0 / rc_lookahead=250 / rc=crf / mbtree=0 / crf=16.8 / qcomp=0.65 / qpmin=0 / qpmax=69 / qpstep=4 / vbv_maxrate=62500 / vbv_bufsize=78125 / crf_max=0.0 / nal_hrd=none / filler=0 / ip_ratio=1.30 / pb_ratio=1.20 / aq=3:0.83
Default                                  : Yes
Forced                                   : No
Color range                              : Limited
Color primaries                          : BT.709
Matrix coefficients                      : BT.709

Audio #1
ID                                       : 2
Format                                   : DTS
Format/Info                              : Digital Theater Systems
Codec ID                                 : A_DTS
Duration                                 : 1 h 27 min
Bit rate mode                            : Constant
Bit rate                                 : 1 509 kb/s
Channel(s)                               : 6 channels
Channel layout                           : C L R Ls Rs LFE
Sampling rate                            : 48.0 kHz
Frame rate                               : 93.750 FPS (512 SPF)
Bit depth                                : 24 bits
Compression mode                         : Lossy
Stream size                              : 947 MiB (8%)
Language                                 : French
Default                                  : Yes
Forced                                   : No

Audio #2
ID                                       : 3
Format                                   : AAC LC
Format/Info                              : Advanced Audio Codec Low Complexity
Codec ID                                 : A_AAC-2
Duration                                 : 1 h 27 min
Bit rate                                 : 148 kb/s
Channel(s)                               : 2 channels
Channel layout                           : L R
Sampling rate                            : 48.0 kHz
Frame rate                               : 46.875 FPS (1024 SPF)
Compression mode                         : Lossy
Delay relative to video                  : 9 ms
Stream size                              : 92.7 MiB (1%)
Title                                    : Commentary By par Manele LABIDI et Golshifteh FARAHANI
Language                                 : French
Default                                  : No
Forced                                   : No

Text #1
ID                                       : 4
Format                                   : UTF-8
Codec ID                                 : S_TEXT/UTF8
Codec ID/Info                            : UTF-8 Plain Text
Duration                                 : 1 h 20 min
Bit rate                                 : 16 b/s
Count of elements                        : 345
Stream size                              : 9.82 KiB (0%)
Title                                    : Forced
Language                                 : French
Default                                  : Yes
Forced                                   : Yes

Text #2
ID                                       : 5
Format                                   : UTF-8
Codec ID                                 : S_TEXT/UTF8
Codec ID/Info                            : UTF-8 Plain Text
Duration                                 : 1 h 21 min
Bit rate                                 : 60 b/s
Count of elements                        : 1211
Stream size                              : 36.2 KiB (0%)
Language                                 : French
Default                                  : No
Forced                                   : No

Text #3
ID                                       : 6
Format                                   : UTF-8
Codec ID                                 : S_TEXT/UTF8
Codec ID/Info                            : UTF-8 Plain Text
Duration                                 : 1 h 27 min
Bit rate                                 : 59 b/s
Count of elements                        : 1330
Stream size                              : 37.9 KiB (0%)
Title                                    : SDH
Language                                 : French
Default                                  : No
Forced                                   : No

Text #4
ID                                       : 7
Format                                   : UTF-8
Codec ID                                 : S_TEXT/UTF8
Codec ID/Info                            : UTF-8 Plain Text
Duration                                 : 1 h 20 min
Bit rate                                 : 16 b/s
Count of elements                        : 348
Stream size                              : 9.65 KiB (0%)
Title                                    : Forced
Language                                 : English
Default                                  : No
Forced                                   : Yes

Text #5
ID                                       : 8
Format                                   : UTF-8
Codec ID                                 : S_TEXT/UTF8
Codec ID/Info                            : UTF-8 Plain Text
Duration                                 : 1 h 21 min
Bit rate                                 : 58 b/s
Count of elements                        : 1211
Stream size                              : 34.5 KiB (0%)
Language                                 : English
Default                                  : No
Forced                                   : No

Text #6
ID                                       : 9
Format                                   : UTF-8
Codec ID                                 : S_TEXT/UTF8
Codec ID/Info                            : UTF-8 Plain Text
Duration                                 : 1 h 27 min
Bit rate                                 : 56 b/s
Count of elements                        : 1330
Stream size                              : 35.8 KiB (0%)
Title                                    : SDH
Language                                 : English
Default                                  : No
Forced                                   : No

Menu
00:00:00.000                             : en:Chapter 01
00:09:52.008                             : en:Chapter 02
00:17:17.286                             : en:Chapter 03
00:25:46.044                             : en:Chapter 04
00:32:05.965                             : en:Chapter 05
00:41:20.102                             : en:Chapter 06
00:46:55.437                             : en:Chapter 07
00:52:45.787                             : en:Chapter 08
00:59:59.554                             : en:Chapter 09
01:05:18.998                             : en:Chapter 10
01:14:49.776                             : en:Chapter 11
01:24:05.498                             : en:Chapter 12
[/url][/url]



                                                                                                                                                                                                        
                                                                                                                                                                                                                                                                                                                                                                                                                                                                                                                                                                                                                                                                                                                                                                                                                                                        
3de30041db784c42ec1e3d34fb0e9cc6.zip (57.84 KB, 下载次数: 0)

回复

使用道具 举报

小黑屋|百度云资源论坛 |网站地图

本网站所有资源来自网络,如无意中侵犯了您的权益,请发邮件至 [email protected],立即清除相关链接

GMT+8, 2020-12-3 02:09 , Processed in 0.106296 second(s), 23 queries .

Powered by Discuz! X3.2

© 2001-2013 Comsenz Inc.

快速回复 返回顶部 返回列表