百度云资源论坛

 找回密码
 立即注册
搜索

我在你床下 Under.Your.Bed.2019.JAPANESE.1080p.BluRay.x264.DTS-PTer 10.44GB

[复制链接]
百度云资源 发表于 2020-11-22 09:14:32 | 显示全部楼层 |阅读模式
-->
帖子完整标题:我在你床下 Under.Your.Bed.2019.JAPANESE.1080p.BluRay.x264.DTS-PTer 10.44GB


[/url]

◎译  名 我在你床下/Under Your Bed/床底
◎片  名 アンダー?ユア?ベッド
◎年  代 2019
◎产  地 日本
◎类  别 爱情 / 悬疑 / 惊悚
◎语  言 日语
◎上映日期 2019-07-19(日本)
◎IMDb评分  6.3/10 from 138 users
◎  
◎豆瓣评分 6.6/10 from 5522 users
◎ 
◎片  长 98分钟
◎导  演 安里麻里 Mari Asato
◎编  剧 大石圭 Kei ?ishi / 安里麻里 Mari Asato
◎主  演 高良健吾 Kengo Kora
       西川可奈子 Kanako Nishikawa
       安部贤一 Abe Kenichi
       三河悠冴 Y?go Mikawa
       三宅亮辅 Ry?suke Miyake

◎标  签 日本 | 人性 | 偷窥 | 犯罪 | 悬疑 | 惊悚 | 2019 | 心理

◎简  介

  影片改编自擅长禁忌题材的作家大石圭的同名小说,讲述不被任何人重视的三井直人与学生时代第一次喊自己名字的女生时隔十一年再会,但是对方却像变了个人,三井为了监视她潜藏在她床底,爱的疯狂加速了他暴走的进程。
Video
ID                                       : 1
Format                                   : AVC
Format/Info                              : Advanced Video Codec
Format profile                           :
Format settings                          : CABAC / 4 Ref Frames
Format settings, CABAC                   : Yes
Format settings, Reference frames        : 4 frames
Codec ID                                 : V_MPEG4/ISO/AVC
Duration                                 : 1 h 38 min
Bit rate                                 : 13.6 Mb/s
Width                                    : 1 920 pixels
Height                                   : 1 038 pixels
Display aspect ratio                     : 1.85:1
Frame rate mode                          : Constant
Frame rate                               : 23.976 (24000/1001/189150) FPS
Color space                              : YUV
Chroma subsampling                       : 4:2:0
Bit depth                                : 8 bits
Scan type                                : Progressive
Bits/(Pixel*Frame)                       : 0.285
Stream size                              : 9.36 GiB (90%)
Title                                    :
Writing library                          : x264 core 158 r2984 3759fcb
Encoding settings                        : cabac=1 / ref=4 / deblock=1:-3:-3 / analyse=0x3:0x133 / me=umh / subme=11 / psy=1 / psy_rd=1.02:0.00 / mixed_ref=1 / me_range=32 / chroma_me=1 / trellis=2 / 8x8dct=1 / cqm=0 / deadzone=21,11 / fast_pskip=0 / chroma_qp_offset=-2 / threads=32 / lookahead_threads=5 / sliced_threads=0 / nr=0 / decimate=0 / interlaced=0 / bluray_compat=0 / constrained_intra=0 / bframes=9 / b_pyramid=2 / b_adapt=2 / b_bias=0 / direct=3 / weightb=1 / open_gop=0 / weightp=2 / keyint=250 / keyint_min=23 / scenecut=40 / intra_refresh=0 / rc_lookahead=250 / rc=crf / mbtree=0 / crf=16.0 / qcomp=0.60 / qpmin=0 / qpmax=69 / qpstep=4 / vbv_maxrate=62500 / vbv_bufsize=78125 / crf_max=0.0 / nal_hrd=none / filler=0 / ip_ratio=1.30 / pb_ratio=1.20 / aq=3:0.80
Default                                  : Yes
Forced                                   : No
Color range                              : Limited
Color primaries                          : BT.709
Matrix coefficients                      : BT.709

Audio
ID                                       : 2
Format                                   : DTS
Format/Info                              : Digital Theater Systems
Codec ID                                 : A_DTS
Duration                                 : 1 h 38 min
Bit rate mode                            : Constant
Bit rate                                 : 1 509 kb/s
Channel(s)                               : 6 channels
Channel layout                           : C L R Ls Rs LFE
Sampling rate                            : 48.0 kHz
Frame rate                               : 93.750 FPS (512 SPF)
Bit depth                                : 24 bits
Compression mode                         : Lossy
Stream size                              : 1.04 GiB (10%)
Language                                 : Japanese
Default                                  : Yes
Forced                                   : No

Text #1
ID                                       : 3
Format                                   : UTF-8
Codec ID                                 : S_TEXT/UTF8
Codec ID/Info                            : UTF-8 Plain Text
Duration                                 : 1 h 33 min
Bit rate                                 : 24 b/s
Count of elements                        : 640
Stream size                              : 16.5 KiB (0%)
Title                                    : SRT
Language                                 : English
Default                                  : Yes
Forced                                   : No

Text #2
ID                                       : 4
Format                                   : PGS
Muxing mode                              : zlib
Codec ID                                 : S_HDMV/PGS
Codec ID/Info                            : Picture based subtitle format used on BDs/HD-DVDs
Duration                                 : 1 h 37 min
Bit rate                                 : 111 kb/s
Count of elements                        : 6367
Stream size                              : 77.6 MiB (1%)
Language                                 : Japanese
Default                                  : No
Forced                                   : No

Text #3
ID                                       : 5
Format                                   : PGS
Muxing mode                              : zlib
Codec ID                                 : S_HDMV/PGS
Codec ID/Info                            : Picture based subtitle format used on BDs/HD-DVDs
Duration                                 : 1 h 33 min
Bit rate                                 : 14.1 kb/s
Count of elements                        : 1280
Stream size                              : 9.45 MiB (0%)
Title                                    : CHS
Language                                 : Chinese
Default                                  : No
Forced                                   : No

Text #4
ID                                       : 6
Format                                   : PGS
Muxing mode                              : zlib
Codec ID                                 : S_HDMV/PGS
Codec ID/Info                            : Picture based subtitle format used on BDs/HD-DVDs
Duration                                 : 1 h 33 min
Bit rate                                 : 14.3 kb/s
Count of elements                        : 1280
Stream size                              : 9.58 MiB (0%)
Title                                    : CHT
Language                                 : Chinese
Default                                  : No
Forced                                   : No

Menu
00:00:00.000                             : en:Chapter 1
00:06:03.780                             : en:Chapter 2
00:15:53.119                             : en:Chapter 3
00:22:45.698                             : en:Chapter 4
00:28:42.095                             : en:Chapter 5
00:34:48.211                             : en:Chapter 6
00:41:18.768                             : en:Chapter 7
00:54:29.558                             : en:Chapter 8
00:58:53.530                             : en:Chapter 9
01:08:06.332                             : en:Chapter 10
01:12:37.353                             : en:Chapter 11
01:25:03.849                             : en:Chapter 12
01:35:50.411                             : en:Chapter 13
[/url][/url][/url]



                                                                                                                                                                                                        
                                                                                                                                                                                                                                                                                                                                                                                                                                                                                                                                                                                                                                                                                                                                                                                                                                                        
af8009b70c0d8749c5450a7c2e35bcdd.zip (52.89 KB, 下载次数: 0)

回复

使用道具 举报

小黑屋|百度云资源论坛 |网站地图

本网站所有资源来自网络,如无意中侵犯了您的权益,请发邮件至 [email protected],立即清除相关链接

GMT+8, 2020-12-3 02:26 , Processed in 0.112540 second(s), 23 queries .

Powered by Discuz! X3.2

© 2001-2013 Comsenz Inc.

快速回复 返回顶部 返回列表