百度云资源论坛

 找回密码
 立即注册
搜索

本人之死 Death.of.Me.2020.1080p.BluRay.x264-PiGNUS 10.97GB

[复制链接]
百度云电影 发表于 2020-11-22 09:14:32 | 显示全部楼层 |阅读模式
-->
帖子完整标题:本人之死 Death.of.Me.2020.1080p.BluRay.x264-PiGNUS 10.97GB


[/url]

◎译  名 本人之死/Death of Me/我之死/我的死法
◎片  名 The Death of Me
◎年  代 2020
◎产  地 美国
◎类  别 恐怖
◎语  言 英语
◎上映日期 2020-10-02(美国)
◎IMDb评分  4.3/10 from 1837 users
◎  
◎豆瓣评分 4.2/10 from 1127 users
◎ 
◎片  长 94分钟
◎导  演 达伦·林恩·鲍斯曼 Darren Lynn Bousman
◎主  演 李美琪 Maggie Q
       卢克·海姆斯沃斯 Luke Hemsworth
       艾丽克斯·埃索 Alex Essoe

◎标  签 恐怖 | 惊悚 | 悬疑 | MaggieQ | 美国 | 2020 | 李美琪 | 美国电影

◎简  介

  故事讲述一对夫妻到泰国的某个海岛上渡假,宿醉醒来完全想不起来前一晚发生的事情。两人回朔相机里的照片,惊然发现前一晚老公将老婆杀害的画面。恐惧又困惑,台风逼近小岛,但下一班船要24小时之后才会抵达小岛,两人试图重建前一晚发生的事情——却被卷入神秘、黑魔法以及谋杀案之中。
Video
ID                                       : 1
Format                                   : AVC
Format/Info                              : Advanced Video Codec
Format profile                           :
Format settings                          : CABAC / 4 Ref Frames
Format settings, CABAC                   : Yes
Format settings, Reference frames        : 4 frames
Codec ID                                 : V_MPEG4/ISO/AVC
Duration                                 : 1 h 34 min
Bit rate                                 : 12.6 Mb/s
Width                                    : 1 920 pixels
Height                                   : 1 036 pixels
Display aspect ratio                     : 1.85:1
Frame rate mode                          : Constant
Frame rate                               : 23.976 (24000/1001/189150) FPS
Color space                              : YUV
Chroma subsampling                       : 4:2:0
Bit depth                                : 8 bits
Scan type                                : Progressive
Bits/(Pixel*Frame)                       : 0.264
Stream size                              : 8.32 GiB (76%)
Writing library                          : x264 core 161 r3027 4121277
Encoding settings                        : cabac=1 / ref=4 / deblock=1:-3:-3 / analyse=0x3:0x133 / me=umh / subme=9 / psy=1 / psy_rd=1.00:0.00 / mixed_ref=1 / me_range=16 / chroma_me=1 / trellis=2 / 8x8dct=1 / cqm=0 / deadzone=21,11 / fast_pskip=1 / chroma_qp_offset=-2 / threads=32 / lookahead_threads=2 / sliced_threads=0 / nr=0 / decimate=1 / interlaced=0 / bluray_compat=0 / constrained_intra=0 / bframes=3 / b_pyramid=2 / b_adapt=2 / b_bias=0 / direct=3 / weightb=1 / open_gop=0 / weightp=2 / keyint=250 / keyint_min=23 / scenecut=40 / intra_refresh=0 / rc_lookahead=60 / rc=crf / mbtree=1 / crf=16.5 / qcomp=0.60 / qpmin=0 / qpmax=69 / qpstep=4 / ip_ratio=1.40 / aq=1:1.00
Language                                 : English
Default                                  : Yes
Forced                                   : No

Audio
ID                                       : 2
Format                                   : DTS XLL
Format/Info                              : Digital Theater Systems
Commercial name                          : DTS-HD Master Audio
Codec ID                                 : A_DTS
Duration                                 : 1 h 34 min
Bit rate mode                            : Variable
Bit rate                                 : 3 976 kb/s
Channel(s)                               : 6 channels
Channel layout                           : C L R Ls Rs LFE
Sampling rate                            : 48.0 kHz
Frame rate                               : 93.750 FPS (512 SPF)
Bit depth                                : 24 bits
Compression mode                         : Lossless
Stream size                              : 2.63 GiB (24%)
Language                                 : English
Default                                  : Yes
Forced                                   : No

Text #1
ID                                       : 3
Format                                   : PGS
Muxing mode                              : zlib
Codec ID                                 : S_HDMV/PGS
Codec ID/Info                            : Picture based subtitle format used on BDs/HD-DVDs
Duration                                 : 1 h 33 min
Bit rate                                 : 29.4 kb/s
Count of elements                        : 2556
Stream size                              : 19.7 MiB (0%)
Title                                    : English SDH
Language                                 : English
Default                                  : No
Forced                                   : No

Text #2
ID                                       : 4
Format                                   : PGS
Muxing mode                              : zlib
Codec ID                                 : S_HDMV/PGS
Codec ID/Info                            : Picture based subtitle format used on BDs/HD-DVDs
Duration                                 : 1 h 27 min
Bit rate                                 : 22.3 kb/s
Count of elements                        : 1706
Stream size                              : 14.0 MiB (0%)
Title                                    : Spanish
Language                                 : Spanish
Default                                  : No
Forced                                   : No

Menu
00:00:00.000                             : en:Chapter 01
00:05:19.945                             : en:Chapter 02
00:11:19.804                             : en:Chapter 03
00:18:02.373                             : en:Chapter 04
00:21:48.974                             : en:Chapter 05
00:27:37.155                             : en:Chapter 06
00:34:30.193                             : en:Chapter 07
00:38:40.109                             : en:Chapter 08
00:43:11.881                             : en:Chapter 09
00:49:29.341                             : en:Chapter 10
00:56:01.775                             : en:Chapter 11
01:01:57.339                             : en:Chapter 12
01:04:53.848                             : en:Chapter 13
01:12:26.634                             : en:Chapter 14
01:17:27.351                             : en:Chapter 15
01:27:42.299                             : en:Chapter 16
01:34:35.461                             : en:Chapter 17
[/url]



                                                                                                                                                                                                        
                                                                                                                                                                                                                                                                                                                                                                                                                                                                                                                                                                                                                                                                                                                                                                                                                                                        
62ea955acd0be902957cf42457813598.zip (55.52 KB, 下载次数: 0)

回复

使用道具 举报

小黑屋|百度云资源论坛 |网站地图

本网站所有资源来自网络,如无意中侵犯了您的权益,请发邮件至 [email protected],立即清除相关链接

GMT+8, 2020-12-3 02:49 , Processed in 0.105049 second(s), 23 queries .

Powered by Discuz! X3.2

© 2001-2013 Comsenz Inc.

快速回复 返回顶部 返回列表