百度云资源论坛

 找回密码
 立即注册
搜索

[BD-4K] 全面回忆/宇宙威龙 Total.Recall.1990.2160p.BluRay.x264.8bit.SDR.DTS-HD...

[复制链接]
百度云电影 发表于 2020-11-21 15:43:46 | 显示全部楼层 |阅读模式
-->
帖子完整标题:全面回忆/宇宙威龙 Total.Recall.1990.2160p.BluRay.x264.8bit.SDR.DTS-HD.MA.TrueHD.7.1.Atmos-SWTYBLZ 63.67GB


[/url]

◎译  名 全面回忆/宇宙威龙(港)/魔鬼总动员(台)
◎片  名 Total Recall
◎年  代 1990
◎产  地 美国
◎类  别 动作 / 科幻 / 惊悚 / 冒险
◎语  言 英语
◎上映日期 1990-06-01(美国)
◎IMDb评分  7.5/10 from 298678 users
◎  
◎豆瓣评分 7.7/10 from 25182 users
◎ 
◎片  长 113分钟
◎导  演 保罗·范霍文 Paul Verhoeven
◎编  剧 菲利普·K·迪克 Philip K. Dick / 罗纳德·舒塞特 Ronald Shusett / 丹·欧班农 Dan O'Bannon / Jon Povill / 加里·戈德曼 Gary Goldman
◎主  演 阿诺·施瓦辛格 Arnold Schwarzenegger
       雷切尔·蒂科汀 Rachel Ticotin
       莎朗·斯通 Sharon Stone
       罗尼·考克斯 Ronny Cox
       迈克尔·艾恩塞德 Michael Ironside
       马绍尔·贝尔 Marshall Bell
       梅尔约翰逊 Mel Johnson Jr.
       迈克尔切姆平 Michael Champion
       罗伊·布罗克斯史密斯 Roy Brocksmith
       雷·贝克 Ray Baker
       萝丝玛丽·邓斯莫尔 Rosemary Dunsmore
       戴维·奈尔 David Knell
       阿列卡夏罗宾逊 Alexia Robinson
       迪恩·诺里斯 Dean Norris
       马克卡尔顿 Mark Carlton
       黛比·李·卡林顿 Debbie Lee Carrington
       Lycia Naff
       罗伯特·康斯坦佐 Robert Costanzo
       Michael LaGuardia
       Priscilla Allen
       马克·阿莱莫 Marc Alaimo
       Michael Gregory
       户田惠子 Keiko Toda
       阿兰·格拉夫 Allan Graf
       鲍勃·祖迪克 Bob Tzudiker
       Erik Cord
       Bennie Moore

◎标  签 科幻 | 动作 | 施瓦辛格 | 美国 | 1990 | 美国电影 | ArnoldSchwarzenegger | 电影

◎简  介

  未来世界中,工程工人道格拉斯(Arnold Schwarzenegger 饰)被持续的梦境困扰,那是一系列发生在红色火星上的体验。道格拉斯在广告上发现了回忆旅行公司的介绍,虽然同事警告他这种虚拟旅行可能会危害人类的大脑,但比起亲自去一趟充斥着反政府武装的火星,回忆旅行公司确是一个不错的选择。道格拉斯如愿接受了回忆旅行的服务,但是虚拟记忆的过程突然出现错误,自此一系列不可思议的经历出现在道格拉斯的身上,先是妻子劳瑞(Sharon Stone 饰)向他发起攻击并承认自己是监视道格拉斯的间谍,后来有陌生人出现帮助他逃脱并指出他是火星独裁者针对反政府武装派出的特工,结果因为一名女子梅丽(Rachel Ticotin 饰)改变了立场……道格拉斯动身前往火星,那里有一切的谜底,或者一切又只是梦境一场?

◎获奖情况

  第63届奥斯卡金像奖 ?(1991)
  最佳音效剪辑(提名) 斯蒂芬·亨特·弗利克
  最佳音响(提名) 亚伦·罗琴?/?迈克尔·J·科胡特?/?尼尔森·斯托尔?/?卡洛斯·德拉里奥斯
  特别成就奖 蒂姆·麦加沃恩?/?埃里克·布雷维格?/?罗伯·博汀
  
  第14届日本电影学院奖 ?(1991)
  最佳外语片(提名)
Video
ID                                       : 1
Format                                   : AVC
Format/Info                              : Advanced Video Codec
Format profile                           :
Format settings                          : CABAC / 5 Ref Frames
Format settings, CABAC                   : Yes
Format settings, Reference frames        : 5 frames
Codec ID                                 : V_MPEG4/ISO/AVC
Duration                                 : 1 h 53 min
Bit rate                                 : 72.3 Mb/s
Width                                    : 3 840 pixels
Height                                   : 2 076 pixels
Display aspect ratio                     : 1.85:1
Frame rate mode                          : Constant
Frame rate                               : 24.000 FPS
Color space                              : YUV
Chroma subsampling                       : 4:2:0
Bit depth                                : 8 bits
Scan type                                : Progressive
Bits/(Pixel*Frame)                       : 0.378
Stream size                              : 57.2 GiB (90%)
Title                                    : Total.Recall.1990.2160p.BluRay.x264.8bit.SDR.DTS-HD.MA.TrueHD.7.1.Atmos-SWTYBLZ
Writing library                          : x264 core 157 r2935 545de2f
Encoding settings                        : cabac=1 / ref=5 / deblock=1:-1:-1 / analyse=0x3:0x113 / me=umh / subme=10 / psy=1 / psy_rd=1.00:0.15 / mixed_ref=1 / me_range=48 / chroma_me=1 / trellis=2 / 8x8dct=1 / cqm=0 / deadzone=21,11 / fast_pskip=1 / chroma_qp_offset=-3 / threads=48 / lookahead_threads=4 / sliced_threads=0 / nr=0 / decimate=0 / interlaced=0 / bluray_compat=0 / constrained_intra=0 / bframes=3 / b_pyramid=2 / b_adapt=2 / b_bias=0 / direct=3 / weightb=1 / open_gop=0 / weightp=2 / keyint=250 / keyint_min=24 / scenecut=40 / intra_refresh=0 / rc_lookahead=50 / rc=crf / mbtree=1 / crf=22.0 / qcomp=0.60 / qpmin=0 / qpmax=69 / qpstep=4 / ip_ratio=1.40 / aq=1:1.00
Default                                  : Yes
Forced                                   : No

Audio #1
ID                                       : 2
ID in the original source medium         : 4352 (0x1100)
Format                                   : MLP FBA 16-ch
Format/Info                              : Meridian Lossless Packing FBA with 16-channel presentation
Commercial name                          : Dolby TrueHD with Dolby Atmos
Codec ID                                 : A_TRUEHD
Duration                                 : 1 h 53 min
Bit rate mode                            : Variable
Bit rate                                 : 3 464 kb/s
Maximum bit rate                         : 5 412 kb/s
Channel(s)                               : 8 channels
Channel layout                           : L R C LFE Ls Rs Lb Rb
Sampling rate                            : 48.0 kHz
Frame rate                               : 1 200.000 FPS (40 SPF)
Compression mode                         : Lossless
Stream size                              : 2.74 GiB (4%)
Title                                    : Total.Recall.1990.2160p.BluRay.x264.8bit.SDR.DTS-HD.MA.TrueHD.7.1.Atmos-SWTYBLZ
Language                                 : English
Default                                  : Yes
Forced                                   : No
Original source medium                   : Blu-ray
Number of dynamic objects                : 11
Bed channel count                        : 1 channel
Bed channel configuration                : LFE

Audio #2
ID                                       : 3
Format                                   : DTS XLL
Format/Info                              : Digital Theater Systems
Commercial name                          : DTS-HD Master Audio
Codec ID                                 : A_DTS
Duration                                 : 1 h 53 min
Bit rate mode                            : Variable
Bit rate                                 : 3 793 kb/s
Channel(s)                               : 8 channels
Channel layout                           : C L R LFE Lb Rb Lss Rss
Sampling rate                            : 48.0 kHz
Frame rate                               : 93.750 FPS (512 SPF)
Bit depth                                : 24 bits
Compression mode                         : Lossless
Stream size                              : 3.00 GiB (5%)
Title                                    : Total.Recall.1990.2160p.BluRay.x264.8bit.SDR.DTS-HD.MA.TrueHD.7.1.Atmos-SWTYBLZ
Language                                 : English
Default                                  : No
Forced                                   : No

Audio #3
ID                                       : 4
ID in the original source medium         : 4352 (0x1100)
Format                                   : AC-3
Format/Info                              : Audio Coding 3
Commercial name                          : Dolby Digital
Codec ID                                 : A_AC3
Duration                                 : 1 h 53 min
Bit rate mode                            : Constant
Bit rate                                 : 384 kb/s
Channel(s)                               : 6 channels
Channel layout                           : L R C LFE Ls Rs
Sampling rate                            : 48.0 kHz
Frame rate                               : 31.250 FPS (1536 SPF)
Compression mode                         : Lossy
Stream size                              : 311 MiB (0%)
Title                                    : Total.Recall.1990.2160p.BluRay.x264.8bit.SDR.DTS-HD.MA.TrueHD.7.1.Atmos-SWTYBLZ
Language                                 : English
Service kind                             : Complete Main
Default                                  : No
Forced                                   : No
Original source medium                   : Blu-ray

Text #1
ID                                       : 5
Format                                   : UTF-8
Codec ID                                 : S_TEXT/UTF8
Codec ID/Info                            : UTF-8 Plain Text
Duration                                 : 1 h 45 min
Bit rate                                 : 48 b/s
Count of elements                        : 1071
Stream size                              : 37.1 KiB (0%)
Title                                    : English-SRT
Language                                 : English
Default                                  : Yes
Forced                                   : No

Text #2
ID                                       : 6
ID in the original source medium         : 4768 (0x12A0)
Format                                   : PGS
Muxing mode                              : zlib
Codec ID                                 : S_HDMV/PGS
Codec ID/Info                            : Picture based subtitle format used on BDs/HD-DVDs
Duration                                 : 1 h 49 min
Bit rate                                 : 24.4 kb/s
Count of elements                        : 2216
Stream size                              : 19.0 MiB (0%)
Title                                    : French-PGS
Language                                 : French
Default                                  : No
Forced                                   : No
Original source medium                   : Blu-ray

Text #3
ID                                       : 7
ID in the original source medium         : 4769 (0x12A1)
Format                                   : PGS
Muxing mode                              : zlib
Codec ID                                 : S_HDMV/PGS
Codec ID/Info                            : Picture based subtitle format used on BDs/HD-DVDs
Duration                                 : 1 h 49 min
Bit rate                                 : 28.1 kb/s
Count of elements                        : 1776
Stream size                              : 21.9 MiB (0%)
Title                                    : German-PGS
Language                                 : German
Default                                  : No
Forced                                   : No
Original source medium                   : Blu-ray

Text #4
ID                                       : 8
ID in the original source medium         : 4770 (0x12A2)
Format                                   : PGS
Muxing mode                              : zlib
Codec ID                                 : S_HDMV/PGS
Codec ID/Info                            : Picture based subtitle format used on BDs/HD-DVDs
Duration                                 : 1 h 45 min
Bit rate                                 : 30.4 kb/s
Count of elements                        : 2274
Stream size                              : 22.9 MiB (0%)
Title                                    : English-PGS
Language                                 : English
Default                                  : No
Forced                                   : No
Original source medium                   : Blu-ray

Menu
00:00:00.000                             : en:Chapter 01
00:05:50.541                             : en:Chapter 02
00:11:27.000                             : en:Chapter 03
00:18:13.916                             : en:Chapter 04
00:24:50.708                             : en:Chapter 05
00:29:37.625                             : en:Chapter 06
00:37:05.500                             : en:Chapter 07
00:43:12.000                             : en:Chapter 08
00:48:35.333                             : en:Chapter 09
00:55:02.000                             : en:Chapter 10
01:00:03.875                             : en:Chapter 11
01:15:21.000                             : en:Chapter 12
01:20:16.000                             : en:Chapter 13
01:27:07.000                             : en:Chapter 14
01:32:18.208                             : en:Chapter 15
01:39:52.708                             : en:Chapter 16
[/url]



                                                                                                                                                                                                        
                                                                                                                                                                                                                                                                                                                                                                                                                                                                                                                                                                                                                                                                                                                                                                                                                                                        
15df3c98f3aae80fbd7daf671de1538b.zip (159.96 KB, 下载次数: 0)

回复

使用道具 举报

小黑屋|百度云资源论坛 |网站地图

本网站所有资源来自网络,如无意中侵犯了您的权益,请发邮件至 [email protected],立即清除相关链接

GMT+8, 2020-12-5 12:53 , Processed in 0.104393 second(s), 23 queries .

Powered by Discuz! X3.2

© 2001-2013 Comsenz Inc.

快速回复 返回顶部 返回列表