百度云资源论坛

 找回密码
 立即注册
搜索

[4K-原盘] 西部世界 第一季/西方极乐园 Westworld.S03.2160p.BluRay.REMUX.HEVC....

[复制链接]
百度云电影 发表于 2020-11-21 15:23:24 | 显示全部楼层 |阅读模式
-->
帖子完整标题:西部世界 第一季/西方极乐园 Westworld.S03.2160p.BluRay.REMUX.HEVC.DTS-HD.MA.TrueHD.7.1.Atmos-FGT 215.03GB


[/url]

◎译  名 西部世界 第一季/西方极乐园
◎片  名 Westworld Season 1
◎年  代 2016
◎产  地 美国
◎类  别 科幻 / 西部
◎语  言 英语
◎上映日期 2016-10-02(美国)
◎IMDb评分  8.7/10 from 417626 users
◎  
◎豆瓣评分 8.9/10 from 238353 users
◎ 
◎集  数 10
◎片  长 60分钟
◎导  演 乔纳森·诺兰 Jonathan Nolan / 强尼·坎贝尔 Jonny Campbell / 理查德·J·刘易斯 Richard J. Lewis / 米歇尔·麦克拉伦 Michelle MacLaren / 尼尔·马歇尔 Neil Marshall / 文森佐·纳塔利 Vincenzo Natali / 弗雷德·托耶 Fred Toye / 斯蒂芬·威廉姆斯 Stephen Williams
◎编  剧 乔纳森·诺兰 Jonathan Nolan / 丽莎·乔伊 Lisa Joy / 迈克尔·克莱顿 Michael Crichton / 爱德·布鲁贝克 Ed Brubaker / 多米尼克·米切尔 Dominic Mitchell / 哈莉·韦格林·格罗斯 Halley Wegryn Gross / 游朝凯 Charles Yu / 丹·迪茨 Dan Dietz / 凯茜·林根费尔特 Kath Lingenfelter / 丹尼尔·T·汤姆森 Daniel T. Thomsen
◎主  演 埃文·蕾切尔·伍德 Evan Rachel Wood
       安东尼·霍普金斯 Anthony Hopkins
       艾德·哈里斯 Ed Harris
       坦迪·牛顿 Thandie Newton
       杰弗里·怀特 Jeffrey Wright
       吉米·辛普森 Jimmi Simpson
       詹姆斯·麦斯登 James Marsden
       本·巴恩斯 Ben Barnes
       英格丽德·波尔索·贝达尔 Ingrid Bols? Berdal
       卢克·海姆斯沃斯 Luke Hemsworth
       西瑟·巴比特·科努德森 Sidse Babett Knudsen
       安吉拉·萨拉弗安 Angela Sarafyan
       珊农·沃德华德 Shannon Woodward
       西蒙·夸特曼 Simon Quarterman
       小克利夫顿·克林斯 Clifton Collins Jr.
       罗德里戈·桑托罗 Rodrigo Santoro
       奥利弗·贝尔 Oliver Bell
       莱昂纳多·吴 Leonardo Nam
       詹姆斯·兰德里·赫伯特 James Landry Hébert
       路易斯·赫特哈姆 Louis Herthum
       杰弗里·丹尼尔·菲利普斯 Jeffrey Daniel Phillips
       泰莎·汤普森 Tessa Thompson
       米兰达·奥图 Miranda Otto
       库里·格拉汉姆 Currie Graham
       凯尔·柏海莫 Kyle Bornheimer
       凯姬·迈克拉瑞 Kiki McCleary
       奥利维亚·梅 Olivia May
       杰姬·摩尔 Jackie Moore
       妲露拉·莱莉 Talulah Riley
       史蒂文·奥格 Steven Ogg
       罗比·史密斯 Robby Smith
       乔什·克拉克 Josh Clark
       梅森·麦卡利 Mason McCulley
       布兰登·范弗利特 Brandon Van Vliet
       莉娜·乔格斯 Lena Georgas
       吉米·索瑞茜莉 Jamie Soricelli
       布拉德福德·塔图姆 Bradford Tatum
       妮娅·金斯利 Nia Kingsley
       韦德·威廉姆斯 Wade Williams
       迈克尔·凯斯 Michael Keyes
       迪兰·科宁 Dylan Kenin
       丽丽·博尔丹 Lili Bordán
       安德鲁·康斯坦丁尼 Andrew Constantini
       达瑞尔·切尔尼 Darrel Cherney
       卡尔·L·桑德斯 Karl L. Sanders
       莉莉·西蒙斯 Lili Simmons
       博亚娜·诺瓦科维奇 Bojana Novakovi?
       米奇·西罗亚 Micky Shiloah

◎标  签 科幻 | 美剧 | 人工智能 | HBO | 人性 | 美国 | 西部 | 悬疑

◎简  介

  故事设定在未来世界,在一个庞大的高科技成人主题乐园中,有着拟真人的机器“接待员”能让游客享尽情欲、暴力等欲望的放纵,主要叙述被称为“西部世界”的未来主题公园。它提供给游客杀戮与性欲的满足。
  
  但是在这世界下,各种暗流涌动。部分机器人出现自我觉醒,发现了自己只是作为故事角色的存在,并且想摆脱乐园对其的控制;乐园的管理层害怕乐园的创造者控制着乐园的一切而试图夺其控制权,而乐园创造者则不会善罢甘休并且探寻其伙伴创造者曾经留下的谜团;而买下乐园的一名高管试图重新发现当年的旅程留下的谜团。

◎获奖情况

  第74届金球奖 ?(2017)
  电视类最佳剧情类剧集(提名)
  电视类剧情类剧集最佳女主角(提名) 埃文·蕾切尔·伍德
  电视类最佳女配角(提名) 坦迪·牛顿
  
  第69届黄金时段艾美奖 ?(2017)
  剧情类最佳剧集(提名)
  剧情类最佳男主角(提名) 安东尼·霍普金斯
  剧情类最佳女主角(提名) 埃文·蕾切尔·伍德
  剧情类最佳男配角(提名) 杰弗里·怀特
  剧情类最佳女配角(提名) 坦迪·牛顿
  剧情类最佳编剧(提名)
  
  第69届美国导演工会奖 ?(2017)
  最佳剧情类剧集导演(提名) 乔纳森·诺兰
  
  第23届美国演员工会奖 ?(2017)
  电视奖剧情类剧集最佳女演员(提名) 坦迪·牛顿
  电视奖剧情类剧集最佳群戏(提名)
  剧集最佳特技群戏(提名)
  
  第69届美国编剧工会奖 ?(2017)
  电视奖剧情类剧集最佳剧本(提名)
  电视奖最佳新剧剧本(提名)
  
  第28届美国制片人工会奖 ?(2017)
  最佳剧情类剧集制片人奖(提名)
  
  第31届美国摄影协会奖 ?(2017)
  电视电影/迷你剧最佳摄影(提名)
  
  第67届美国剪辑工会奖 ?(2017)
  一小时非商业电视最佳剪辑(提名)
  
  第21届美国艺术指导工会奖 ?(2017)
  电视奖最佳1小时历史剧/幻想类单镜头剧集艺术指导
  
  第19届美国服装设计工会奖 ?(2017)
  年代剧集最佳服装设计(提名)
  
  第15届美国视觉效果协会奖 ?(2017)
  最佳广播节目视觉效果(提名)
  
  第53届美国声音效果协会奖 ?(2017)
  1小时剧集最佳音效(提名)
  
  第7届美国评论家选择电视奖 ?(2017)
  剧情类最佳剧集(提名)
  剧情类最佳女主角 埃文·蕾切尔·伍德
  剧情类最佳女配角 坦迪·牛顿
  
  第3届豆瓣电影年度榜单 ?(2016)
  评分最高的英美剧(新剧)(提名)
Video
ID                                       : 1
ID in the original source medium         : 4113 (0x1011)
Format                                   : HEVC
Format/Info                              : High Efficiency Video Coding
Format profile                           : Main @High
HDR format                               : SMPTE ST 2086, HDR10 compatible
Codec ID                                 : V_MPEGH/ISO/HEVC
Duration                                 : 1 h 15 min
Bit rate                                 : 63.7 Mb/s
Width                                    : 3 840 pixels
Height                                   : 2 160 pixels
Display aspect ratio                     : 16:9
Frame rate mode                          : Constant
Frame rate                               : 23.976 (24000/1001/189150) FPS
Color space                              : YUV
Chroma subsampling                       : 4:2:0 (Type 2)
Bit depth                                : 10 bits
Bits/(Pixel*Frame)                       : 0.320
Stream size                              : 33.8 GiB (89%)
Title                                    : Westworld.S03E08.Crisis.Theory.2160p.BluRay.REMUX.HEVC.DTS-HD.MA.TrueHD.7.1.Atmos-FGT
Language                                 : English
Default                                  : No
Forced                                   : No
Color range                              : Limited
Color primaries                          : BT.2020
Transfer characteristics                 : PQ
Matrix coefficients                      : BT.2020 non-constant
Mastering display color primaries        : Display P3
Mastering display luminance              : min: 0.0050 cd/m2, max: 4000 cd/m2
Maximum Content Light Level              : 1399 cd/m2
Maximum Frame-Average Light Level        : 240 cd/m2
Original source medium                   : Blu-ray

Audio #1
ID                                       : 2
ID in the original source medium         : 4352 (0x1100)
Format                                   : MLP FBA 16-ch
Format/Info                              : Meridian Lossless Packing FBA with 16-channel presentation
Commercial name                          : Dolby TrueHD with Dolby Atmos
Codec ID                                 : A_TRUEHD
Duration                                 : 1 h 15 min
Bit rate mode                            : Variable
Bit rate                                 : 2 752 kb/s
Maximum bit rate                         : 4 284 kb/s
Channel(s)                               : 8 channels
Channel layout                           : L R C LFE Ls Rs Lb Rb
Sampling rate                            : 48.0 kHz
Frame rate                               : 1 200.000 FPS (40 SPF)
Compression mode                         : Lossless
Stream size                              : 1.46 GiB (4%)
Title                                    : Westworld.S03E08.Crisis.Theory.2160p.BluRay.REMUX.HEVC.DTS-HD.MA.TrueHD.7.1.Atmos-FGT
Language                                 : English
Default                                  : Yes
Forced                                   : No
Original source medium                   : Blu-ray
Number of dynamic objects                : 11
Bed channel count                        : 1 channel
Bed channel configuration                : LFE

Audio #2
ID                                       : 3
Format                                   : DTS XLL
Format/Info                              : Digital Theater Systems
Commercial name                          : DTS-HD Master Audio
Codec ID                                 : A_DTS
Duration                                 : 1 h 15 min
Bit rate mode                            : Variable
Bit rate                                 : 3 066 kb/s
Channel(s)                               : 8 channels
Channel layout                           : C L R LFE Lb Rb Lss Rss
Sampling rate                            : 48.0 kHz
Frame rate                               : 93.750 FPS (512 SPF)
Bit depth                                : 24 bits
Compression mode                         : Lossless
Stream size                              : 1.63 GiB (4%)
Title                                    : Westworld.S03E08.Crisis.Theory.2160p.BluRay.REMUX.HEVC.DTS-HD.MA.TrueHD.7.1.Atmos-FGT
Language                                 : English
Default                                  : No
Forced                                   : No

Audio #3
ID                                       : 4
ID in the original source medium         : 4352 (0x1100)
Format                                   : AC-3
Format/Info                              : Audio Coding 3
Commercial name                          : Dolby Digital
Codec ID                                 : A_AC3
Duration                                 : 1 h 15 min
Bit rate mode                            : Constant
Bit rate                                 : 448 kb/s
Channel(s)                               : 6 channels
Channel layout                           : L R C LFE Ls Rs
Sampling rate                            : 48.0 kHz
Frame rate                               : 31.250 FPS (1536 SPF)
Compression mode                         : Lossy
Stream size                              : 243 MiB (1%)
Title                                    : Westworld.S03E08.Crisis.Theory.2160p.BluRay.REMUX.HEVC.DTS-HD.MA.TrueHD.7.1.Atmos-FGT
Language                                 : English
Service kind                             : Complete Main
Default                                  : No
Forced                                   : No
Original source medium                   : Blu-ray

Audio #4
ID                                       : 5
ID in the original source medium         : 4353 (0x1101)
Format                                   : AC-3
Format/Info                              : Audio Coding 3
Commercial name                          : Dolby Digital
Codec ID                                 : A_AC3
Duration                                 : 1 h 15 min
Bit rate mode                            : Constant
Bit rate                                 : 640 kb/s
Channel(s)                               : 6 channels
Channel layout                           : L R C LFE Ls Rs
Sampling rate                            : 48.0 kHz
Frame rate                               : 31.250 FPS (1536 SPF)
Compression mode                         : Lossy
Stream size                              : 348 MiB (1%)
Title                                    : Westworld.S03E08.Crisis.Theory.2160p.BluRay.REMUX.HEVC.DTS-HD.MA.TrueHD.7.1.Atmos-FGT
Language                                 : French
Service kind                             : Complete Main
Default                                  : No
Forced                                   : No
Original source medium                   : Blu-ray

Audio #5
ID                                       : 6
ID in the original source medium         : 4354 (0x1102)
Format                                   : AC-3
Format/Info                              : Audio Coding 3
Commercial name                          : Dolby Digital
Codec ID                                 : A_AC3
Duration                                 : 1 h 15 min
Bit rate mode                            : Constant
Bit rate                                 : 640 kb/s
Channel(s)                               : 6 channels
Channel layout                           : L R C LFE Ls Rs
Sampling rate                            : 48.0 kHz
Frame rate                               : 31.250 FPS (1536 SPF)
Compression mode                         : Lossy
Stream size                              : 348 MiB (1%)
Title                                    : Westworld.S03E08.Crisis.Theory.2160p.BluRay.REMUX.HEVC.DTS-HD.MA.TrueHD.7.1.Atmos-FGT
Language                                 : German
Service kind                             : Complete Main
Default                                  : No
Forced                                   : No
Original source medium                   : Blu-ray

Text #1
ID                                       : 7
Format                                   : UTF-8
Codec ID                                 : S_TEXT/UTF8
Codec ID/Info                            : UTF-8 Plain Text
Duration                                 : 1 h 13 min
Bit rate                                 : 39 b/s
Count of elements                        : 731
Stream size                              : 21.4 KiB (0%)
Title                                    : English-SRT
Language                                 : English
Default                                  : Yes
Forced                                   : No

Text #2
ID                                       : 8
Format                                   : PGS
Muxing mode                              : zlib
Codec ID                                 : S_HDMV/PGS
Codec ID/Info                            : Picture based subtitle format used on BDs/HD-DVDs
Duration                                 : 1 h 15 min
Bit rate                                 : 26.8 kb/s
Count of elements                        : 1666
Stream size                              : 14.5 MiB (0%)
Title                                    : English-PGS
Language                                 : English
Default                                  : No
Forced                                   : No

Text #3
ID                                       : 9
Format                                   : PGS
Muxing mode                              : zlib
Codec ID                                 : S_HDMV/PGS
Codec ID/Info                            : Picture based subtitle format used on BDs/HD-DVDs
Duration                                 : 1 h 15 min
Bit rate                                 : 18.6 kb/s
Count of elements                        : 1499
Stream size                              : 9.96 MiB (0%)
Title                                    : Chinese-PGS
Language                                 : Chinese
Default                                  : No
Forced                                   : No

Text #4
ID                                       : 10
Format                                   : PGS
Muxing mode                              : zlib
Codec ID                                 : S_HDMV/PGS
Codec ID/Info                            : Picture based subtitle format used on BDs/HD-DVDs
Duration                                 : 1 h 14 min
Bit rate                                 : 21.7 kb/s
Count of elements                        : 1128
Stream size                              : 11.5 MiB (0%)
Title                                    : Danish-PGS
Language                                 : Danish
Default                                  : No
Forced                                   : No

Text #5
ID                                       : 11
Format                                   : PGS
Muxing mode                              : zlib
Codec ID                                 : S_HDMV/PGS
Codec ID/Info                            : Picture based subtitle format used on BDs/HD-DVDs
Duration                                 : 1 h 14 min
Bit rate                                 : 24.6 kb/s
Count of elements                        : 1466
Stream size                              : 13.0 MiB (0%)
Title                                    : Dutch-PGS
Language                                 : Dutch
Default                                  : No
Forced                                   : No

Text #6
ID                                       : 12
Format                                   : PGS
Muxing mode                              : zlib
Codec ID                                 : S_HDMV/PGS
Codec ID/Info                            : Picture based subtitle format used on BDs/HD-DVDs
Duration                                 : 1 h 14 min
Bit rate                                 : 22.1 kb/s
Count of elements                        : 1314
Stream size                              : 11.7 MiB (0%)
Title                                    : Finnish-PGS
Language                                 : Finnish
Default                                  : No
Forced                                   : No

Text #7
ID                                       : 13
Format                                   : PGS
Muxing mode                              : zlib
Codec ID                                 : S_HDMV/PGS
Codec ID/Info                            : Picture based subtitle format used on BDs/HD-DVDs
Duration                                 : 1 h 14 min
Bit rate                                 : 21.9 kb/s
Count of elements                        : 1498
Stream size                              : 11.6 MiB (0%)
Title                                    : French-PGS
Language                                 : French
Default                                  : No
Forced                                   : No

Text #8
ID                                       : 14
Format                                   : PGS
Muxing mode                              : zlib
Codec ID                                 : S_HDMV/PGS
Codec ID/Info                            : Picture based subtitle format used on BDs/HD-DVDs
Duration                                 : 1 h 15 min
Bit rate                                 : 30.5 kb/s
Count of elements                        : 1660
Stream size                              : 16.5 MiB (0%)
Title                                    : German-PGS
Language                                 : German
Default                                  : No
Forced                                   : No

Text #9
ID                                       : 15
Format                                   : PGS
Muxing mode                              : zlib
Codec ID                                 : S_HDMV/PGS
Codec ID/Info                            : Picture based subtitle format used on BDs/HD-DVDs
Duration                                 : 1 h 14 min
Bit rate                                 : 22.2 kb/s
Count of elements                        : 1486
Stream size                              : 11.8 MiB (0%)
Title                                    : Korean-PGS
Language                                 : Korean
Default                                  : No
Forced                                   : No

Text #10
ID                                       : 16
Format                                   : PGS
Muxing mode                              : zlib
Codec ID                                 : S_HDMV/PGS
Codec ID/Info                            : Picture based subtitle format used on BDs/HD-DVDs
Duration                                 : 1 h 14 min
Bit rate                                 : 21.1 kb/s
Count of elements                        : 1046
Stream size                              : 11.2 MiB (0%)
Title                                    : Norwegian-PGS
Language                                 : Norwegian
Default                                  : No
Forced                                   : No

Text #11
ID                                       : 17
Format                                   : PGS
Muxing mode                              : zlib
Codec ID                                 : S_HDMV/PGS
Codec ID/Info                            : Picture based subtitle format used on BDs/HD-DVDs
Duration                                 : 1 h 14 min
Bit rate                                 : 25.2 kb/s
Count of elements                        : 1478
Stream size                              : 13.4 MiB (0%)
Title                                    : Portuguese-PGS
Language                                 : Portuguese
Default                                  : No
Forced                                   : No

Text #12
ID                                       : 18
Format                                   : PGS
Muxing mode                              : zlib
Codec ID                                 : S_HDMV/PGS
Codec ID/Info                            : Picture based subtitle format used on BDs/HD-DVDs
Duration                                 : 1 h 14 min
Bit rate                                 : 20.2 kb/s
Count of elements                        : 1344
Stream size                              : 10.7 MiB (0%)
Title                                    : Spanish-PGS
Language                                 : Spanish
Default                                  : No
Forced                                   : No

Text #13
ID                                       : 19
Format                                   : PGS
Muxing mode                              : zlib
Codec ID                                 : S_HDMV/PGS
Codec ID/Info                            : Picture based subtitle format used on BDs/HD-DVDs
Duration                                 : 1 h 13 min
Bit rate                                 : 23.9 kb/s
Count of elements                        : 1508
Stream size                              : 12.5 MiB (0%)
Title                                    : Spanish-PGS
Language                                 : Spanish
Default                                  : No
Forced                                   : No

Text #14
ID                                       : 20
Format                                   : PGS
Muxing mode                              : zlib
Codec ID                                 : S_HDMV/PGS
Codec ID/Info                            : Picture based subtitle format used on BDs/HD-DVDs
Duration                                 : 1 h 14 min
Bit rate                                 : 22.2 kb/s
Count of elements                        : 1090
Stream size                              : 11.8 MiB (0%)
Title                                    : Swedish-PGS
Language                                 : Swedish
Default                                  : No
Forced                                   : No

Menu
00:00:00.000                             : en:Chapter 1
00:01:42.352                             : en:Chapter 2
00:08:26.798                             : en:Chapter 3
00:16:02.587                             : en:Chapter 4
00:19:30.419                             : en:Chapter 5
00:25:39.705                             : en:Chapter 6
00:34:47.502                             : en:Chapter 7
00:42:13.114                             : en:Chapter 8
00:49:40.769                             : en:Chapter 9
00:55:18.106                             : en:Chapter 10
01:01:45.827                             : en:Chapter 11
01:10:28.850                             : en:Chapter 12




                                                                                                                                                                                                        
                                                                                                                                                                                                                                                      &nb

回复

使用道具 举报

小黑屋|百度云资源论坛 |网站地图

本网站所有资源来自网络,如无意中侵犯了您的权益,请发邮件至 [email protected],立即清除相关链接

GMT+8, 2020-12-6 09:02 , Processed in 0.103831 second(s), 20 queries .

Powered by Discuz! X3.2

© 2001-2013 Comsenz Inc.

快速回复 返回顶部 返回列表