百度云资源论坛

 找回密码
 立即注册
搜索

租房惊魂/夺命监 The.Rental.2020.1080p.BluRay.x264.DTS-MT 9.36GB

[复制链接]
百度云资源 发表于 2020-11-21 15:02:49 | 显示全部楼层 |阅读模式
-->
帖子完整标题:租房惊魂/夺命监 The.Rental.2020.1080p.BluRay.x264.DTS-MT 9.36GB


[/url]

◎译  名 租房惊魂/夺命监(港)/租赁/致命窥弑(台)
◎片  名 The Rental
◎年  代 2020
◎产  地 美国
◎类  别 惊悚 / 恐怖
◎语  言 英语
◎上映日期 2020-07-24(美国)
◎IMDb评分  5.7/10 from 13032 users
◎  
◎豆瓣评分 5.1/10 from 1684 users
◎ 
◎片  长 88分钟
◎导  演 戴夫·弗兰科 Dave Franco
◎编  剧 戴夫·弗兰科 Dave Franco / 乔·斯万博格 Joe Swanberg
◎主  演 丹·史蒂文斯 Dan Stevens
       爱丽森·布里 Alison Brie
       希拉·凡德 Sheila Vand
       杰瑞米·艾伦·怀特 Jeremy Allen White
       托比·哈斯 Toby Huss
       昌克 Chunk
       安东尼·莫利纳利 Anthony Molinari

◎标  签 惊悚 | 美国 | 恐怖 | 2020 | 犯罪 | 电影 | 悬疑 | 人性

◎简  介

  两对夫妇搬入租来的度假屋中,诡异的事情却接连发生。
Video
ID                                       : 1
Format                                   : AVC
Format/Info                              : Advanced Video Codec
Format profile                           :
Format settings                          : CABAC / 5 Ref Frames
Format settings, CABAC                   : Yes
Format settings, Reference frames        : 5 frames
Codec ID                                 : V_MPEG4/ISO/AVC
Duration                                 : 1 h 28 min
Bit rate                                 : 13.7 Mb/s
Width                                    : 1 920 pixels
Height                                   : 804 pixels
Display aspect ratio                     : 2.40:1
Frame rate mode                          : Constant
Frame rate                               : 23.976 (24000/1001/189150) FPS
Color space                              : YUV
Chroma subsampling                       : 4:2:0
Bit depth                                : 8 bits
Scan type                                : Progressive
Bits/(Pixel*Frame)                       : 0.369
Stream size                              : 8.43 GiB (90%)
Writing library                          : x264 core 157 r2938 2b00a84  Mod
Encoding settings                        : cabac=1 / ref=5 / deblock=1:-3:-3 / analyse=0x3:0x133 / me=umh / subme=10 / psy=1 / psy_rd=1.05:0.00 / mixed_ref=1 / me_range=32 / chroma_me=1 / trellis=2 / 8x8dct=1 / cqm=0 / deadzone=21,11 / fast_pskip=0 / chroma_qp_offset=-2 / threads=12 / lookahead_threads=2 / sliced_threads=0 / nr=0 / decimate=0 / interlaced=0 / bluray_compat=0 / constrained_intra=0 / bframes=8 / b_pyramid=2 / b_adapt=2 / b_bias=0 / direct=3 / weightb=1 / open_gop=0 / weightp=2 / keyint=250 / keyint_min=24 / scenecut=40 / intra_refresh=0 / rc_lookahead=250 / rc=crf / mbtree=0 / crf=16.8 / qcomp=0.60 / qpmin=0 / qpmax=69 / qpstep=4 / vbv_maxrate=62500 / vbv_bufsize=78125 / crf_max=0.0 / nal_hrd=none / filler=0 / ip_ratio=1.30 / pb_ratio=1.20 / aq=3:0.80
Language                                 : English
Default                                  : Yes
Forced                                   : No
Color range                              : Limited
Color primaries                          : BT.709
Matrix coefficients                      : BT.709

Audio
ID                                       : 2
Format                                   : DTS
Format/Info                              : Digital Theater Systems
Codec ID                                 : A_DTS
Duration                                 : 1 h 28 min
Bit rate mode                            : Constant
Bit rate                                 : 1 509 kb/s
Channel(s)                               : 6 channels
Channel layout                           : C L R Ls Rs LFE
Sampling rate                            : 48.0 kHz
Frame rate                               : 93.750 FPS (512 SPF)
Bit depth                                : 24 bits
Compression mode                         : Lossy
Stream size                              : 953 MiB (10%)
Language                                 : English
Default                                  : Yes
Forced                                   : No

Text
ID                                       : 3
Format                                   : UTF-8
Codec ID                                 : S_TEXT/UTF8
Codec ID/Info                            : UTF-8 Plain Text
Duration                                 : 1 h 22 min
Bit rate                                 : 48 b/s
Count of elements                        : 1184
Stream size                              : 28.9 KiB (0%)
Language                                 : English
Default                                  : Yes
Forced                                   : No

Menu
00:00:00.000                             : en:Chapter 01
00:06:23.633                             : en:Chapter 02
00:13:42.530                             : en:Chapter 03
00:20:57.673                             : en:Chapter 04
00:30:15.063                             : en:Chapter 05
00:36:32.482                             : en:Chapter 06
00:43:36.614                             : en:Chapter 07
00:49:01.438                             : en:Chapter 08
00:53:06.266                             : en:Chapter 09
00:59:48.376                             : en:Chapter 10
01:06:57.847                             : en:Chapter 11
01:15:28.190                             : en:Chapter 12
[/url][/url][/url]



                                                                                                                                                                                                        
                                                                                                                                                                                                                                                                                                                                                                                                                                                                                                                                                                                                                                                                                                                                                                                                                                                        
28adfb1f0b19f62bca8dc898440eb1b3.zip (47.43 KB, 下载次数: 0)

回复

使用道具 举报

小黑屋|百度云资源论坛 |网站地图

本网站所有资源来自网络,如无意中侵犯了您的权益,请发邮件至 [email protected],立即清除相关链接

GMT+8, 2020-12-2 15:24 , Processed in 0.111940 second(s), 23 queries .

Powered by Discuz! X3.2

© 2001-2013 Comsenz Inc.

快速回复 返回顶部 返回列表