百度云资源论坛

 找回密码
 立即注册
搜索

[BD-4K] 冲突/急先锋横扫罪恶城 Serpico.1973.2160p.BluRay.x265.10bit.SDR.DTS-...

[复制链接]
百度云资源 发表于 2020-11-20 09:24:14 | 显示全部楼层 |阅读模式
-->
帖子完整标题:冲突/急先锋横扫罪恶城 Serpico.1973.2160p.BluRay.x265.10bit.SDR.DTS-HD.MA.5.1-SWTYBLZ 50.31GB


[/url]

◎译  名 冲突/急先锋横扫罪恶城/谢皮科
◎片  名 Serpico
◎年  代 1973
◎产  地 意大利,美国
◎类  别 剧情 / 传记 / 犯罪
◎语  言 英语,西班牙语,意大利语
◎上映日期 1973-12-05
◎IMDb评分  7.7/10 from 108127 users
◎片  长 130 分钟
◎导  演 西德尼·吕美特 Sidney Lumet
◎编  剧 瓦尔度·绍特 Waldo Salt / 诺曼·韦克斯勒 Norman Wexler
◎主  演 阿尔·帕西诺 Al Pacino
       约翰·兰道夫 John Randolph
       杰克·基欧 Jack Kehoe
       比夫·麦奎尔 Biff McGuire
       艾伦·瑞奇 Allan Rich

◎标  签 阿尔·帕西诺 | 美国 | 犯罪 | AlPacino | 1973 | 美国电影 | SidneyLumet | 剧情

◎简  介

  法兰克是一个年轻而富有理想的警察,他从巡警开始做起,后来成为卧底警察,虽然他的破案率很高,但他不愿意象其他警察那样收受贿赂,这使他显得和其他人格格不入。这种做法也使他身陷危机,因为他的同事们都与他为敌,且不时地陷害他。当检察组开始调查警局内部的贪污内幕时,他又出面作证,因此更陷入危险之中……

◎获奖情况

  第46届奥斯卡金像奖 ?(1974)
  最佳男主角(提名) 阿尔·帕西诺
  最佳改编剧本(提名) 诺曼·韦克斯勒?/?瓦尔度·绍特
Video
ID                                       : 1
Format                                   : HEVC
Format/Info                              : High Efficiency Video Coding
Format profile                           : Main @High
Codec ID                                 : V_MPEGH/ISO/HEVC
Duration                                 : 2 h 10 min
Bit rate                                 : 48.7 Mb/s
Width                                    : 3 840 pixels
Height                                   : 2 072 pixels
Display aspect ratio                     : 1.85:1
Frame rate mode                          : Constant
Frame rate                               : 24.000 FPS
Color space                              : YUV
Chroma subsampling                       : 4:2:0
Bit depth                                : 10 bits
Bits/(Pixel*Frame)                       : 0.255
Stream size                              : 44.3 GiB (88%)
Title                                    : Serpico.1973.2160p.BluRay.x265.10bit.SDR.DTS-HD.MA.5.1-SWTYBLZ
Writing library                          : x265 3.0ed72af837053:[Windows][GCC 8.2.0][64 bit] 10bit
Encoding settings                        : cpuid=1111039 / frame-threads=6 / numa-pools=40 / wpp / no-pmode / no-pme / no-psnr / no-ssim / log-level=2 / input-csp=1 / input-res=3840x2072 / interlace=0 / total-frames=187483 / level-idc=51 / high-tier=1 / uhd-bd=0 / ref=3 / no-allow-non-conformance / repeat-headers / annexb / aud / hrd / info / hash=0 / no-temporal-layers / no-open-gop / min-keyint=1 / keyint=24 / gop-lookahead=0 / bframes=4 / b-adapt=2 / b-pyramid / bframe-bias=0 / rc-lookahead=25 / lookahead-slices=4 / scenecut=40 / radl=0 / no-splice / no-intra-refresh / ctu=64 / min-cu-size=8 / no-rect / no-amp / max-tu-size=32 / tu-inter-depth=1 / tu-intra-depth=1 / limit-tu=0 / rdoq-level=0 / dynamic-rd=0.00 / no-ssim-rd / signhide / no-tskip / nr-intra=0 / nr-inter=0 / no-constrained-intra / strong-intra-smoothing / max-merge=2 / limit-refs=3 / no-limit-modes / me=1 / subme=2 / merange=57 / temporal-mvp / weightp / no-weightb / no-analyze-src-pics / deblock=0:0 / no-sao / no-sao-non-deblock / rd=3 / no-early-skip / rskip / no-fast-intra / no-tskip-fast / no-cu-lossless / no-b-intra / no-splitrd-skip / rdpenalty=0 / psy-rd=2.00 / psy-rdoq=0.00 / no-rd-refine / no-lossless / cbqpoffs=0 / crqpoffs=0 / rc=crf / crf=18.0 / qcomp=0.60 / qpstep=4 / stats-write=0 / stats-read=0 / vbv-maxrate=160000 / vbv-bufsize=160000 / vbv-init=0.9 / crf-max=0.0 / crf-min=0.0 / ipratio=1.40 / pbratio=1.30 / aq-mode=1 / aq-strength=1.00 / cutree / zone-count=0 / no-strict-cbr / qg-size=32 / no-rc-grain / qpmax=69 / qpmin=0 / no-const-vbv / sar=1 / overscan=0 / videoformat=5 / range=0 / colorprim=2 / transfer=2 / colormatrix=2 / chromaloc=0 / display-window=0 / max-cll=0,0 / min-luma=0 / max-luma=1023 / log2-max-poc-lsb=8 / vui-timing-info / vui-hrd-info / slices=1 / opt-qp-pps / opt-ref-list-length-pps / no-multi-pass-opt-rps / scenecut-bias=0.05 / no-opt-cu-delta-qp / no-aq-motion / no-hdr / no-hdr-opt / no-dhdr10-opt / no-idr-recovery-sei / analysis-reuse-level=5 / scale-factor=0 / refine-intra=0 / refine-inter=0 / refine-mv=0 / refine-ctu-distortion=0 / no-limit-sao / ctu-info=0 / no-lowpass-dct / refine-analysis-type=0 / copy-pic=1 / max-ausize-factor=1.0 / no-dynamic-refine / no-single-sei / no-hevc-aq / qp-adaptation-range=1.00
Default                                  : Yes
Forced                                   : No

Audio #1
ID                                       : 2
Format                                   : DTS XLL
Format/Info                              : Digital Theater Systems
Commercial name                          : DTS-HD Master Audio
Codec ID                                 : A_DTS
Duration                                 : 2 h 10 min
Bit rate mode                            : Variable
Bit rate                                 : 3 440 kb/s
Channel(s)                               : 6 channels
Channel layout                           : C L R Ls Rs LFE
Sampling rate                            : 48.0 kHz
Frame rate                               : 93.750 FPS (512 SPF)
Bit depth                                : 24 bits
Compression mode                         : Lossless
Stream size                              : 3.13 GiB (6%)
Title                                    : Serpico.1973.2160p.BluRay.x265.10bit.SDR.DTS-HD.MA.5.1-SWTYBLZ
Language                                 : English
Default                                  : Yes
Forced                                   : No

Audio #2
ID                                       : 3
Format                                   : AC-3
Format/Info                              : Audio Coding 3
Commercial name                          : Dolby Digital
Codec ID                                 : A_AC3
Duration                                 : 2 h 10 min
Bit rate mode                            : Constant
Bit rate                                 : 640 kb/s
Channel(s)                               : 6 channels
Channel layout                           : L R C LFE Ls Rs
Sampling rate                            : 48.0 kHz
Frame rate                               : 31.250 FPS (1536 SPF)
Compression mode                         : Lossy
Stream size                              : 596 MiB (1%)
Title                                    : Serpico.1973.2160p.BluRay.x265.10bit.SDR.DTS-HD.MA.5.1-SWTYBLZ
Language                                 : English
Service kind                             : Complete Main
Default                                  : No
Forced                                   : No

Audio #3
ID                                       : 4
ID in the original source medium         : 4353 (0x1101)
Format                                   : PCM
Format settings                          : Little / Signed
Codec ID                                 : A_PCM/INT/LIT
Duration                                 : 2 h 10 min
Bit rate mode                            : Constant
Bit rate                                 : 2 304 kb/s
Channel(s)                               : 2 channels
Sampling rate                            : 48.0 kHz
Frame rate                               : 30.000 FPS (1600 SPF)
Bit depth                                : 24 bits
Stream size                              : 2.10 GiB (4%)
Title                                    : Serpico.1973.2160p.BluRay.x265.10bit.SDR.DTS-HD.MA.5.1-SWTYBLZ
Language                                 : English
Default                                  : No
Forced                                   : No
Original source medium                   : Blu-ray

Text #1
ID                                       : 5
Format                                   : UTF-8
Codec ID                                 : S_TEXT/UTF8
Codec ID/Info                            : UTF-8 Plain Text
Duration                                 : 2 h 6 min
Bit rate                                 : 61 b/s
Count of elements                        : 1519
Stream size                              : 56.9 KiB (0%)
Title                                    : English-SRT
Language                                 : English
Default                                  : Yes
Forced                                   : No

Text #2
ID                                       : 6
ID in the original source medium         : 4768 (0x12A0)
Format                                   : PGS
Muxing mode                              : zlib
Codec ID                                 : S_HDMV/PGS
Codec ID/Info                            : Picture based subtitle format used on BDs/HD-DVDs
Duration                                 : 2 h 7 min
Bit rate                                 : 30.2 kb/s
Count of elements                        : 1910
Stream size                              : 27.5 MiB (0%)
Title                                    : German-PGS
Language                                 : German
Default                                  : No
Forced                                   : No
Original source medium                   : Blu-ray

Text #3
ID                                       : 7
ID in the original source medium         : 4769 (0x12A1)
Format                                   : PGS
Muxing mode                              : zlib
Codec ID                                 : S_HDMV/PGS
Codec ID/Info                            : Picture based subtitle format used on BDs/HD-DVDs
Duration                                 : 2 h 8 min
Bit rate                                 : 25.4 kb/s
Count of elements                        : 2640
Stream size                              : 23.4 MiB (0%)
Title                                    : French-PGS
Language                                 : French
Default                                  : No
Forced                                   : No
Original source medium                   : Blu-ray

Menu
00:00:00.000                             : en:Chapter 01
00:06:36.000                             : en:Chapter 02
00:20:57.000                             : en:Chapter 03
00:30:30.000                             : en:Chapter 04
00:39:22.000                             : en:Chapter 05
00:51:30.000                             : en:Chapter 06
00:58:44.000                             : en:Chapter 07
01:10:44.000                             : en:Chapter 08
01:24:51.000                             : en:Chapter 09
01:36:02.000                             : en:Chapter 10
01:50:17.000                             : en:Chapter 11
02:02:26.000                             : en:Chapter 12
[/url][/url]



                                                                                                                                                                                                        
                                                                                                                                                                                                                                                                                                                                                                                                                                                                                                                                                                                                                                                                                                                                                                                                                                                        
315b8730292faafda550ac034e8eb9d0.zip (126.52 KB, 下载次数: 0)

回复

使用道具 举报

小黑屋|百度云资源论坛 |网站地图

本网站所有资源来自网络,如无意中侵犯了您的权益,请发邮件至 [email protected],立即清除相关链接

GMT+8, 2020-12-5 14:14 , Processed in 0.119428 second(s), 23 queries .

Powered by Discuz! X3.2

© 2001-2013 Comsenz Inc.

快速回复 返回顶部 返回列表