百度云资源论坛

 找回密码
 立即注册
搜索

[BD-4K] 格蕾特和韩塞尔 Gretel.and.Hansel.2020.2160p.BluRay.x265.10bit.SDR.DTS-...

[复制链接]
百度云电影 发表于 2020-11-19 09:07:27 | 显示全部楼层 |阅读模式
帖子完整标题:格蕾特和韩塞尔 Gretel.and.Hansel.2020.2160p.BluRay.x265.10bit.SDR.DTS-HD.MA.5.1-SWTYBLZ 19.70GB


[/url]

◎译  名 格蕾特和韩塞尔/Gretel and Hansel/战栗糖果屋(台)/格蕾特和汉塞尔/糖果屋/韩赛尔与格蕾特
◎片  名 Gretel & Hansel
◎年  代 2020
◎产  地 加拿大,爱尔兰,美国,南非
◎类  别 惊悚 / 恐怖 / 奇幻
◎语  言 英语
◎上映日期 2020-01-31(美国)
◎IMDb评分  5.3/10 from 20702 users
◎  
◎豆瓣评分 5.4/10 from 1669 users
◎ 
◎片  长 87分钟
◎导  演 奥兹·珀金斯 Oz Perkins
◎编  剧 罗布·海斯 Rob Hayes / 奥兹·珀金斯 Oz Perkins
◎主  演 索菲娅·莉莉丝 Sophia Lillis
       艾丽丝·克里奇 Alice Krige
       杰西卡·德·古维 Jessica De Gouw
       查尔斯·巴巴洛拉 Charles Babalola
       塞缪尔·利基 Samuel Leakey
       伊安·肯尼 Ian Kenny
       阿卜杜勒·阿尔沙瑞夫 Abdul Alshareef
       曼纽尔·庞波 Manuel Pombo
       贝娅特丽克斯·帕金斯 Beatrix Perkins

◎标  签 恐怖 | 惊悚 | 奇幻 | 2020 | 美国 | 魔幻 | 黑色童话 | 格林童话

◎简  介

  描述葛丽特与汉赛尔被抛弃在黑森林中,试图找寻食物,却误入女巫预备丰盛佳肴的屋子。
  
  故事发生在很久很久以前,在一个遥远的村庄,女孩葛丽特(索菲娅·莉莉丝 饰)带着弟弟韩赛尔进入一片幽暗密林,饥寒交迫的两人原本希望可以在这里找到食物和工作,却遇上了令人恐惧的邪恶存在……
Video
ID                                       : 1
Format                                   : HEVC
Format/Info                              : High Efficiency Video Coding
Format profile                           : Main @High
Codec ID                                 : V_MPEGH/ISO/HEVC
Duration                                 : 1 h 27 min
Bit rate                                 : 29.0 Mb/s
Width                                    : 3 840 pixels
Height                                   : 2 076 pixels
Display aspect ratio                     : 1.85:1
Frame rate mode                          : Constant
Frame rate                               : 23.976 (24000/1001/189150) FPS
Color space                              : YUV
Chroma subsampling                       : 4:2:0
Bit depth                                : 10 bits
Bits/(Pixel*Frame)                       : 0.152
Stream size                              : 17.7 GiB (91%)
Title                                    : Gretel.and.Hansel.2020.2160p.BluRay.x265.10bit.SDR.DTS-HD.MA.5.1-SWTYBLZ
Writing library                          : x265 3.0ed72af837053:[Windows][GCC 8.2.0][64 bit] 10bit
Encoding settings                        : cpuid=1111039 / frame-threads=6 / numa-pools=40 / wpp / no-pmode / no-pme / no-psnr / no-ssim / log-level=2 / input-csp=1 / input-res=3840x2076 / interlace=0 / total-frames=125839 / level-idc=51 / high-tier=1 / uhd-bd=0 / ref=3 / no-allow-non-conformance / repeat-headers / annexb / aud / hrd / info / hash=0 / no-temporal-layers / no-open-gop / min-keyint=1 / keyint=24 / gop-lookahead=0 / bframes=4 / b-adapt=2 / b-pyramid / bframe-bias=0 / rc-lookahead=25 / lookahead-slices=4 / scenecut=40 / radl=0 / no-splice / no-intra-refresh / ctu=64 / min-cu-size=8 / no-rect / no-amp / max-tu-size=32 / tu-inter-depth=1 / tu-intra-depth=1 / limit-tu=0 / rdoq-level=0 / dynamic-rd=0.00 / no-ssim-rd / signhide / no-tskip / nr-intra=0 / nr-inter=0 / no-constrained-intra / strong-intra-smoothing / max-merge=2 / limit-refs=3 / no-limit-modes / me=1 / subme=2 / merange=57 / temporal-mvp / weightp / no-weightb / no-analyze-src-pics / deblock=0:0 / no-sao / no-sao-non-deblock / rd=3 / no-early-skip / rskip / no-fast-intra / no-tskip-fast / no-cu-lossless / no-b-intra / no-splitrd-skip / rdpenalty=0 / psy-rd=2.00 / psy-rdoq=0.00 / no-rd-refine / no-lossless / cbqpoffs=0 / crqpoffs=0 / rc=crf / crf=16.0 / qcomp=0.60 / qpstep=4 / stats-write=0 / stats-read=0 / vbv-maxrate=160000 / vbv-bufsize=160000 / vbv-init=0.9 / crf-max=0.0 / crf-min=0.0 / ipratio=1.40 / pbratio=1.30 / aq-mode=1 / aq-strength=1.00 / cutree / zone-count=0 / no-strict-cbr / qg-size=32 / no-rc-grain / qpmax=69 / qpmin=0 / no-const-vbv / sar=1 / overscan=0 / videoformat=5 / range=0 / colorprim=2 / transfer=2 / colormatrix=2 / chromaloc=0 / display-window=0 / max-cll=0,0 / min-luma=0 / max-luma=1023 / log2-max-poc-lsb=8 / vui-timing-info / vui-hrd-info / slices=1 / opt-qp-pps / opt-ref-list-length-pps / no-multi-pass-opt-rps / scenecut-bias=0.05 / no-opt-cu-delta-qp / no-aq-motion / no-hdr / no-hdr-opt / no-dhdr10-opt / no-idr-recovery-sei / analysis-reuse-level=5 / scale-factor=0 / refine-intra=0 / refine-inter=0 / refine-mv=0 / refine-ctu-distortion=0 / no-limit-sao / ctu-info=0 / no-lowpass-dct / refine-analysis-type=0 / copy-pic=1 / max-ausize-factor=1.0 / no-dynamic-refine / no-single-sei / no-hevc-aq / qp-adaptation-range=1.00
Language                                 : English
Default                                  : Yes
Forced                                   : No

Audio #1
ID                                       : 2
ID in the original source medium         : 4353 (0x1101)
Format                                   : DTS XLL
Format/Info                              : Digital Theater Systems
Commercial name                          : DTS-HD Master Audio
Codec ID                                 : A_DTS
Duration                                 : 1 h 27 min
Bit rate mode                            : Variable
Bit rate                                 : 2 334 kb/s
Channel(s)                               : 6 channels
Channel layout                           : C L R Ls Rs LFE
Sampling rate                            : 48.0 kHz
Frame rate                               : 93.750 FPS (512 SPF)
Bit depth                                : 16 bits
Compression mode                         : Lossless
Stream size                              : 1.43 GiB (7%)
Title                                    : Gretel.and.Hansel.2020.2160p.BluRay.x265.10bit.SDR.DTS-HD.MA.5.1-SWTYBLZ
Language                                 : English
Default                                  : Yes
Forced                                   : No
Original source medium                   : Blu-ray

Audio #2
ID                                       : 3
Format                                   : AC-3
Format/Info                              : Audio Coding 3
Commercial name                          : Dolby Digital
Codec ID                                 : A_AC3
Duration                                 : 1 h 27 min
Bit rate mode                            : Constant
Bit rate                                 : 640 kb/s
Channel(s)                               : 6 channels
Channel layout                           : L R C LFE Ls Rs
Sampling rate                            : 48.0 kHz
Frame rate                               : 31.250 FPS (1536 SPF)
Compression mode                         : Lossy
Stream size                              : 400 MiB (2%)
Title                                    : Gretel.and.Hansel.2020.2160p.BluRay.x265.10bit.SDR.DTS-HD.MA.5.1-SWTYBLZ
Language                                 : English
Service kind                             : Complete Main
Default                                  : No
Forced                                   : No

Text #1
ID                                       : 4
Format                                   : UTF-8
Codec ID                                 : S_TEXT/UTF8
Codec ID/Info                            : UTF-8 Plain Text
Duration                                 : 1 h 21 min
Bit rate                                 : 40 b/s
Count of elements                        : 815
Stream size                              : 23.9 KiB (0%)
Title                                    : English-SRT
Language                                 : English
Default                                  : Yes
Forced                                   : No

Text #2
ID                                       : 5
Format                                   : UTF-8
Codec ID                                 : S_TEXT/UTF8
Codec ID/Info                            : UTF-8 Plain Text
Duration                                 : 1 h 21 min
Bit rate                                 : 42 b/s
Count of elements                        : 913
Stream size                              : 25.7 KiB (0%)
Title                                    : English-SDH-SRT
Language                                 : English
Default                                  : No
Forced                                   : No

Text #3
ID                                       : 6
ID in the original source medium         : 4768 (0x12A0)
Format                                   : PGS
Muxing mode                              : zlib
Codec ID                                 : S_HDMV/PGS
Codec ID/Info                            : Picture based subtitle format used on BDs/HD-DVDs
Duration                                 : 1 h 21 min
Bit rate                                 : 27.6 kb/s
Count of elements                        : 1458
Stream size                              : 16.1 MiB (0%)
Title                                    : German-PGS
Language                                 : German
Default                                  : No
Forced                                   : No
Original source medium                   : Blu-ray

Menu
00:00:00.000                             : en:Chapter 01
00:07:09.429                             : en:Chapter 02
00:14:15.604                             : en:Chapter 03
00:21:47.889                             : en:Chapter 04
00:28:14.401                             : en:Chapter 05
00:36:35.359                             : en:Chapter 06
00:44:51.772                             : en:Chapter 07
00:52:16.633                             : en:Chapter 08
01:02:25.783                             : en:Chapter 09
01:10:40.736                             : en:Chapter 10
01:15:31.777                             : en:Chapter 11
01:19:11.496                             : en:Chapter 12
01:27:18.524                             : en:Chapter 13
[/url]



                                                                                                                                                                                                        
                                                                                                                                                                                                                                                                                                                                                                                                                                                                                                                                                                                                                                                                                                                                                                                                                                                         0657369f4ba59c66a7b955e96d650cba.zip (99.27 KB, 下载次数: 0)

回复

使用道具 举报

小黑屋|百度云资源论坛 |网站地图

本网站所有资源来自网络,如无意中侵犯了您的权益,请发邮件至 [email protected],立即清除相关链接

GMT+8, 2020-12-5 13:34 , Processed in 0.104236 second(s), 23 queries .

Powered by Discuz! X3.2

© 2001-2013 Comsenz Inc.

快速回复 返回顶部 返回列表