百度云资源论坛

 找回密码
 立即注册
搜索

[4K-原盘] 秃鹰七十二小时/秃鹰72小时 Three.Days.of.the.Condor.1975.2160p.BluR...

[复制链接]
百度云资源 发表于 2020-11-19 08:47:06 | 显示全部楼层 |阅读模式
帖子完整标题:秃鹰七十二小时/秃鹰72小时 Three.Days.of.the.Condor.1975.2160p.BluRay.REMUX.HEVC.DTS-HD.MA.5.1-FGT 72.18GB


[/url]

◎译  名 秃鹰七十二小时/秃鹰72小时/秃鹰的三天/英雄不流泪/追杀
◎片  名 Three Days of the Condor
◎年  代 1975
◎产  地 美国
◎类  别 剧情 / 动作 / 惊悚
◎语  言 英语,法语
◎上映日期 1975-09-24(美国)
◎IMDb评分  7.4/10 from 47527 users
◎  
◎豆瓣评分 6.9/10 from 1082 users
◎ 
◎片  长 117分钟
◎导  演 西德尼·波拉克 Sydney Pollack / 彼特·克林逊 Peter Collinson
◎编  剧 詹姆斯·格雷迪 James Grady / 洛伦佐·森普尔 Lorenzo Semple Jr. / 大卫·雷菲尔德 David Rayfiel / 大卫·D·奥斯本 David D. Osborn
◎主  演 罗伯特·雷德福 Robert Redford
       费·唐纳薇 Faye Dunaway
       克里夫·罗伯逊 Cliff Robertson
       马克斯·冯·叙多夫 Max von Sydow
       约翰·豪斯曼 John Houseman
       艾迪生·鲍威尔 Addison Powell
       沃尔特·麦金恩 Walter McGinn
       蒂娜·陈 Tina Chen
       唐麦克亨利 Don McHenry
       杰斯·奥苏纳 Jess Osuna
       迪诺·纳里扎诺 Dino Narizzano
       理查德·林奇 Richard Lynch
       彼得·方达 Peter Fonda
       西蒙·安德鲁 Simón Andreu
       Concha Cuetos
       弗兰克·布拉尼亚 Frank Bra?a
       阿尔维托·德·门多萨 Alberto de Mendoza
       William Layton
       赫尔佳·丽列 Helga Liné
       Gudrun McCleary
       科妮莉娅·夏普 Cornelia Sharpe
       Loreta Tovar
       约翰·菲利浦·劳 John Phillip Law
       威廉·霍尔登 William Holden

◎标  签 美国 | 悬疑 | 间谍 | 美国电影 | 西德尼·波拉克 | 1975 | RobertRedford | 1970s

◎简  介

  美国中央情报局调查员透纳,自从发现局内不可告人的勾当,就此身陷一连串灾难事件。一日,两名男子冲进办公室,狙杀所有的员工,唯有透纳有幸逃脱。

◎获奖情况

  第48届奥斯卡金像奖 ?(1976)
  最佳剪辑(提名) 弗雷德里克·斯坦坎普?/?唐·盖迪斯
Video #1
ID                                       : 1
ID in the original source medium         : 4113 (0x1011)
Format                                   : HEVC
Format/Info                              : High Efficiency Video Coding
Format profile                           : Main @High
HDR format                               : SMPTE ST 2086, HDR10 compatible
Codec ID                                 : V_MPEGH/ISO/HEVC
Duration                                 : 1 h 57 min
Bit rate                                 : 69.9 Mb/s
Width                                    : 3 840 pixels
Height                                   : 2 160 pixels
Display aspect ratio                     : 16:9
Frame rate mode                          : Constant
Frame rate                               : 24.000 FPS
Color space                              : YUV
Chroma subsampling                       : 4:2:0 (Type 2)
Bit depth                                : 10 bits
Bits/(Pixel*Frame)                       : 0.351
Stream size                              : 57.3 GiB (79%)
Title                                    : Three.Days.of.the.Condor.1975.2160p.BluRay.REMUX.HEVC.DTS-HD.MA.5.1-FGT
Language                                 : English
Default                                  : Yes
Forced                                   : No
Color range                              : Limited
Color primaries                          : BT.2020
Transfer characteristics                 : PQ
Matrix coefficients                      : BT.2020 non-constant
Mastering display color primaries        : BT.2020
Mastering display luminance              : min: 0.0001 cd/m2, max: 1000 cd/m2
Original source medium                   : Blu-ray


Video #2
ID                                       : 2
ID in the original source medium         : 4117 (0x1015)
Format                                   : HEVC
Format/Info                              : High Efficiency Video Coding
Format profile                           : Main @High
HDR format                               : SMPTE ST 2086, HDR10 compatible
Codec ID                                 : V_MPEGH/ISO/HEVC
Duration                                 : 1 h 57 min
Bit rate                                 : 7 431 kb/s
Width                                    : 1 920 pixels
Height                                   : 1 080 pixels
Display aspect ratio                     : 16:9
Frame rate mode                          : Constant
Frame rate                               : 24.000 FPS
Color space                              : YUV
Chroma subsampling                       : 4:2:0 (Type 2)
Bit depth                                : 10 bits
Bits/(Pixel*Frame)                       : 0.149
Stream size                              : 6.10 GiB (8%)
Title                                    : Three.Days.of.the.Condor.1975.2160p.BluRay.REMUX.HEVC.DTS-HD.MA.5.1-FGT
Language                                 : English
Default                                  : No
Forced                                   : No
Color range                              : Limited
Color primaries                          : BT.2020
Transfer characteristics                 : PQ
Matrix coefficients                      : BT.2020 non-constant
Mastering display color primaries        : BT.2020
Mastering display luminance              : min: 0.0001 cd/m2, max: 1000 cd/m2
Original source medium                   : Blu-ray

Audio #1
ID                                       : 3
ID in the original source medium         : 4353 (0x1101)
Format                                   : DTS XLL
Format/Info                              : Digital Theater Systems
Commercial name                          : DTS-HD Master Audio
Codec ID                                 : A_DTS
Duration                                 : 1 h 57 min
Bit rate mode                            : Variable
Bit rate                                 : 3 736 kb/s
Channel(s)                               : 6 channels
Channel layout                           : C L R Ls Rs LFE
Sampling rate                            : 48.0 kHz
Frame rate                               : 93.750 FPS (512 SPF)
Bit depth                                : 24 bits
Compression mode                         : Lossless
Stream size                              : 3.07 GiB (4%)
Title                                    : Three.Days.of.the.Condor.1975.2160p.BluRay.REMUX.HEVC.DTS-HD.MA.5.1-FGT
Language                                 : English
Default                                  : Yes
Forced                                   : No
Original source medium                   : Blu-ray

Audio #2
ID                                       : 4
ID in the original source medium         : 4352 (0x1100)
Format                                   : PCM
Format settings                          : Little / Signed
Codec ID                                 : A_PCM/INT/LIT
Duration                                 : 1 h 57 min
Bit rate mode                            : Constant
Bit rate                                 : 2 304 kb/s
Channel(s)                               : 2 channels
Sampling rate                            : 48.0 kHz
Frame rate                               : 30.000 FPS (1600 SPF)
Bit depth                                : 24 bits
Stream size                              : 1.89 GiB (3%)
Title                                    : Three.Days.of.the.Condor.1975.2160p.BluRay.REMUX.HEVC.DTS-HD.MA.5.1-FGT
Language                                 : German
Default                                  : No
Forced                                   : No
Original source medium                   : Blu-ray

Audio #3
ID                                       : 5
ID in the original source medium         : 4354 (0x1102)
Format                                   : PCM
Format settings                          : Little / Signed
Codec ID                                 : A_PCM/INT/LIT
Duration                                 : 1 h 57 min
Bit rate mode                            : Constant
Bit rate                                 : 2 304 kb/s
Channel(s)                               : 2 channels
Sampling rate                            : 48.0 kHz
Frame rate                               : 30.000 FPS (1600 SPF)
Bit depth                                : 24 bits
Stream size                              : 1.89 GiB (3%)
Title                                    : Three.Days.of.the.Condor.1975.2160p.BluRay.REMUX.HEVC.DTS-HD.MA.5.1-FGT
Language                                 : English
Default                                  : No
Forced                                   : No
Original source medium                   : Blu-ray

Audio #4
ID                                       : 6
ID in the original source medium         : 4355 (0x1103)
Format                                   : PCM
Format settings                          : Little / Signed
Codec ID                                 : A_PCM/INT/LIT
Duration                                 : 1 h 57 min
Bit rate mode                            : Constant
Bit rate                                 : 2 304 kb/s
Channel(s)                               : 2 channels
Sampling rate                            : 48.0 kHz
Frame rate                               : 30.000 FPS (1600 SPF)
Bit depth                                : 24 bits
Stream size                              : 1.89 GiB (3%)
Title                                    : Three.Days.of.the.Condor.1975.2160p.BluRay.REMUX.HEVC.DTS-HD.MA.5.1-FGT
Language                                 : French
Default                                  : No
Forced                                   : No
Original source medium                   : Blu-ray

Text #1
ID                                       : 7
Format                                   : UTF-8
Codec ID                                 : S_TEXT/UTF8
Codec ID/Info                            : UTF-8 Plain Text
Duration                                 : 8 s 287 ms
Bit rate                                 : 80 b/s
Count of elements                        : 3
Stream size                              : 83.0 Bytes (0%)
Title                                    : English-FORCED-SRT
Language                                 : English
Default                                  : Yes
Forced                                   : Yes

Text #2
ID                                       : 8
Format                                   : UTF-8
Codec ID                                 : S_TEXT/UTF8
Codec ID/Info                            : UTF-8 Plain Text
Duration                                 : 1 h 54 min
Bit rate                                 : 46 b/s
Count of elements                        : 1225
Stream size                              : 38.8 KiB (0%)
Title                                    : English-SRT
Language                                 : English
Default                                  : No
Forced                                   : No

Text #3
ID                                       : 9
ID in the original source medium         : 4768 (0x12A0)
Format                                   : PGS
Muxing mode                              : zlib
Codec ID                                 : S_HDMV/PGS
Codec ID/Info                            : Picture based subtitle format used on BDs/HD-DVDs
Duration                                 : 1 h 55 min
Bit rate                                 : 22.9 kb/s
Count of elements                        : 2168
Stream size                              : 18.9 MiB (0%)
Title                                    : German-PGS
Language                                 : German
Default                                  : No
Forced                                   : No
Original source medium                   : Blu-ray

Text #4
ID                                       : 10
ID in the original source medium         : 4769 (0x12A1)
Format                                   : PGS
Muxing mode                              : zlib
Codec ID                                 : S_HDMV/PGS
Codec ID/Info                            : Picture based subtitle format used on BDs/HD-DVDs
Duration                                 : 1 h 56 min
Bit rate                                 : 19.6 kb/s
Count of elements                        : 2468
Stream size                              : 16.3 MiB (0%)
Title                                    : French-PGS
Language                                 : French
Default                                  : No
Forced                                   : No
Original source medium                   : Blu-ray

Text #5
ID                                       : 11
ID in the original source medium         : 4770 (0x12A2)
Format                                   : PGS
Muxing mode                              : zlib
Codec ID                                 : S_HDMV/PGS
Codec ID/Info                            : Picture based subtitle format used on BDs/HD-DVDs
Duration                                 : 1 h 32 min
Bit rate                                 : 198 b/s
Count of elements                        : 12
Stream size                              : 135 KiB (0%)
Title                                    : German-FORCED-PGS
Language                                 : German
Default                                  : No
Forced                                   : No
Original source medium                   : Blu-ray

Text #6
ID                                       : 12
ID in the original source medium         : 4771 (0x12A3)
Format                                   : PGS
Muxing mode                              : zlib
Codec ID                                 : S_HDMV/PGS
Codec ID/Info                            : Picture based subtitle format used on BDs/HD-DVDs
Duration                                 : 1 h 33 min
Bit rate                                 : 575 b/s
Count of elements                        : 32
Stream size                              : 393 KiB (0%)
Title                                    : French-FORCED-PGS
Language                                 : French
Default                                  : No
Forced                                   : No
Original source medium                   : Blu-ray

Text #7
ID                                       : 13
ID in the original source medium         : 4774 (0x12A6)
Format                                   : PGS
Muxing mode                              : zlib
Codec ID                                 : S_HDMV/PGS
Codec ID/Info                            : Picture based subtitle format used on BDs/HD-DVDs
Duration                                 : 8 s 188 ms
Bit rate                                 : 45.3 kb/s
Count of elements                        : 6
Stream size                              : 45.3 KiB (0%)
Title                                    : English-FORCED-PGS
Language                                 : English
Default                                  : No
Forced                                   : No
Original source medium                   : Blu-ray

Menu
00:00:00.000                             : en:Chapter 01
00:11:13.000                             : en:Chapter 02
00:20:18.000                             : en:Chapter 03
00:28:04.000                             : en:Chapter 04
00:38:25.000                             : en:Chapter 05
00:52:30.000                             : en:Chapter 06
01:00:09.000                             : en:Chapter 07
01:14:33.000                             : en:Chapter 08
01:18:55.000                             : en:Chapter 09
01:28:24.000                             : en:Chapter 10
01:36:33.000                             : en:Chapter 11
01:51:08.000                             : en:Chapter 12




                                                                                                                                                                                                        
                                                                                                                                                                                                                                                                                                                                                                                                                                                                                                                                                                                                                                                                                                                                                                                                                                                         2277dace00c1576e9b52168b05cb2371.zip (181.18 KB, 下载次数: 0)

回复

使用道具 举报

小黑屋|百度云资源论坛 |网站地图

本网站所有资源来自网络,如无意中侵犯了您的权益,请发邮件至 a[email protected],立即清除相关链接

GMT+8, 2020-12-5 13:56 , Processed in 0.119160 second(s), 23 queries .

Powered by Discuz! X3.2

© 2001-2013 Comsenz Inc.

快速回复 返回顶部 返回列表