百度云资源论坛

 找回密码
 立即注册
搜索

[4K-原盘] 格蕾特和韩塞尔 Gretel.and.Hansel.2020.2160p.BluRay.REMUX.HEVC.DTS-HD.M...

[复制链接]
百度云资源 发表于 2020-11-18 08:31:06 | 显示全部楼层 |阅读模式
帖子完整标题:格蕾特和韩塞尔 Gretel.and.Hansel.2020.2160p.BluRay.REMUX.HEVC.DTS-HD.MA.5.1-FGT 45.14GB


[/url]

◎译  名 格蕾特和韩塞尔/Gretel and Hansel/战栗糖果屋(台)/格蕾特和汉塞尔/糖果屋/韩赛尔与格蕾特
◎片  名 Gretel & Hansel
◎年  代 2020
◎产  地 加拿大,爱尔兰,美国,南非
◎类  别 惊悚 / 恐怖 / 奇幻
◎语  言 英语
◎上映日期 2020-01-31(美国)
◎IMDb评分  5.3/10 from 20684 users
◎  
◎豆瓣评分 5.4/10 from 1667 users
◎ 
◎片  长 87分钟
◎导  演 奥兹·珀金斯 Oz Perkins
◎编  剧 罗布·海斯 Rob Hayes / 奥兹·珀金斯 Oz Perkins
◎主  演 索菲娅·莉莉丝 Sophia Lillis
       艾丽丝·克里奇 Alice Krige
       杰西卡·德·古维 Jessica De Gouw
       查尔斯·巴巴洛拉 Charles Babalola
       塞缪尔·利基 Samuel Leakey
       伊安·肯尼 Ian Kenny
       阿卜杜勒·阿尔沙瑞夫 Abdul Alshareef
       曼纽尔·庞波 Manuel Pombo
       贝娅特丽克斯·帕金斯 Beatrix Perkins

◎标  签 恐怖 | 惊悚 | 奇幻 | 2020 | 美国 | 魔幻 | 黑色童话 | 格林童话

◎简  介

  描述葛丽特与汉赛尔被抛弃在黑森林中,试图找寻食物,却误入女巫预备丰盛佳肴的屋子。
  
  故事发生在很久很久以前,在一个遥远的村庄,女孩葛丽特(索菲娅·莉莉丝 饰)带着弟弟韩赛尔进入一片幽暗密林,饥寒交迫的两人原本希望可以在这里找到食物和工作,却遇上了令人恐惧的邪恶存在……
Video
ID                                       : 1
ID in the original source medium         : 4113 (0x1011)
Format                                   : HEVC
Format/Info                              : High Efficiency Video Coding
Format profile                           : Main @High
HDR format                               : SMPTE ST 2094 App 4, Version 1, HDR10+ Profile B compatible
Codec ID                                 : V_MPEGH/ISO/HEVC
Duration                                 : 1 h 27 min
Bit rate                                 : 69.1 Mb/s
Width                                    : 3 840 pixels
Height                                   : 2 160 pixels
Display aspect ratio                     : 16:9
Frame rate mode                          : Constant
Frame rate                               : 23.976 (24000/1001/189150) FPS
Color space                              : YUV
Chroma subsampling                       : 4:2:0 (Type 2)
Bit depth                                : 10 bits
Bits/(Pixel*Frame)                       : 0.348
Stream size                              : 42.2 GiB (94%)
Title                                    : Gretel.and.Hansel.2020.2160p.BluRay.REMUX.HEVC.DTS-HD.MA.5.1-FGT
Language                                 : English
Default                                  : No
Forced                                   : No
Color range                              : Limited
Color primaries                          : BT.2020
Transfer characteristics                 : PQ
Matrix coefficients                      : BT.2020 non-constant
Mastering display color primaries        : Display P3
Mastering display luminance              : min: 0.0050 cd/m2, max: 1000 cd/m2
Maximum Content Light Level              : 1000 cd/m2
Maximum Frame-Average Light Level        : 400 cd/m2
Original source medium                   : Blu-ray

Audio #1
ID                                       : 2
ID in the original source medium         : 4353 (0x1101)
Format                                   : DTS XLL
Format/Info                              : Digital Theater Systems
Commercial name                          : DTS-HD Master Audio
Codec ID                                 : A_DTS
Duration                                 : 1 h 27 min
Bit rate mode                            : Variable
Bit rate                                 : 2 334 kb/s
Channel(s)                               : 6 channels
Channel layout                           : C L R Ls Rs LFE
Sampling rate                            : 48.0 kHz
Frame rate                               : 93.750 FPS (512 SPF)
Bit depth                                : 16 bits
Compression mode                         : Lossless
Stream size                              : 1.43 GiB (3%)
Title                                    : Gretel.and.Hansel.2020.2160p.BluRay.REMUX.HEVC.DTS-HD.MA.5.1-FGT
Language                                 : English
Default                                  : Yes
Forced                                   : No
Original source medium                   : Blu-ray

Audio #2
ID                                       : 3
ID in the original source medium         : 4352 (0x1100)
Format                                   : DTS XLL
Format/Info                              : Digital Theater Systems
Commercial name                          : DTS-HD Master Audio
Codec ID                                 : A_DTS
Duration                                 : 1 h 27 min
Bit rate mode                            : Variable
Bit rate                                 : 2 385 kb/s
Channel(s)                               : 6 channels
Channel layout                           : C L R Ls Rs LFE
Sampling rate                            : 48.0 kHz
Frame rate                               : 93.750 FPS (512 SPF)
Bit depth                                : 16 bits
Compression mode                         : Lossless
Stream size                              : 1.46 GiB (3%)
Title                                    : Gretel.and.Hansel.2020.2160p.BluRay.REMUX.HEVC.DTS-HD.MA.5.1-FGT
Language                                 : German
Default                                  : No
Forced                                   : No
Original source medium                   : Blu-ray

Text #1
ID                                       : 4
Format                                   : UTF-8
Codec ID                                 : S_TEXT/UTF8
Codec ID/Info                            : UTF-8 Plain Text
Duration                                 : 1 h 21 min
Bit rate                                 : 40 b/s
Count of elements                        : 815
Stream size                              : 23.9 KiB (0%)
Title                                    : English-SRT
Language                                 : English
Default                                  : Yes
Forced                                   : No

Text #2
ID                                       : 5
Format                                   : UTF-8
Codec ID                                 : S_TEXT/UTF8
Codec ID/Info                            : UTF-8 Plain Text
Duration                                 : 1 h 21 min
Bit rate                                 : 42 b/s
Count of elements                        : 913
Stream size                              : 25.7 KiB (0%)
Title                                    : English-SDH-SRT
Language                                 : English
Default                                  : No
Forced                                   : No

Text #3
ID                                       : 6
ID in the original source medium         : 4768 (0x12A0)
Format                                   : PGS
Muxing mode                              : zlib
Codec ID                                 : S_HDMV/PGS
Codec ID/Info                            : Picture based subtitle format used on BDs/HD-DVDs
Duration                                 : 1 h 21 min
Bit rate                                 : 27.6 kb/s
Count of elements                        : 1458
Stream size                              : 16.1 MiB (0%)
Title                                    : German-PGS
Language                                 : German
Default                                  : No
Forced                                   : No
Original source medium                   : Blu-ray

Menu
00:00:00.000                             : en:Chapter 01
00:07:09.429                             : en:Chapter 02
00:14:15.604                             : en:Chapter 03
00:21:47.889                             : en:Chapter 04
00:28:14.401                             : en:Chapter 05
00:36:35.359                             : en:Chapter 06
00:44:51.772                             : en:Chapter 07
00:52:16.633                             : en:Chapter 08
01:02:25.783                             : en:Chapter 09
01:10:40.736                             : en:Chapter 10
01:15:31.777                             : en:Chapter 11
01:19:11.496                             : en:Chapter 12
01:27:18.524                             : en:Chapter 13




                                                                                                                                                                                                        
                                                                                                                                                                                                                                                                                                                                                                                                                                                                                                                                                                                                                                                                                                                                                                                                                                                         35874b47b5cb1ad987a97537e6647fee.zip (113.55 KB, 下载次数: 0)

回复

使用道具 举报

小黑屋|百度云资源论坛 |网站地图

本网站所有资源来自网络,如无意中侵犯了您的权益,请发邮件至 [email protected],立即清除相关链接

GMT+8, 2020-12-6 08:30 , Processed in 0.105417 second(s), 23 queries .

Powered by Discuz! X3.2

© 2001-2013 Comsenz Inc.

快速回复 返回顶部 返回列表