百度云资源论坛

 找回密码
 立即注册
搜索

[BD-4K] 新变种人 The.New.Mutants.2020.2160p.BluRay.x265.10bit.SDR.DTS-HD.MA.TrueH...

[复制链接]
百度云电影 发表于 2020-11-16 11:14:53 | 显示全部楼层 |阅读模式
帖子完整标题:新变种人 The.New.Mutants.2020.2160p.BluRay.x265.10bit.SDR.DTS-HD.MA.TrueHD.7.1.Atmos-SWTYBLZ 25.16GB


[/url]

◎译  名 新变种人/X-Men: The New Mutants/变种人(台)/新变档人(豆友译名)/新异变人(港)
◎片  名 The New Mutants
◎年  代 2020
◎产  地 美国
◎类  别 动作 / 科幻 / 恐怖
◎语  言 英语
◎上映日期 2020-08-28(美国)
◎IMDb评分  5.4/10 from 20857 users
◎  
◎豆瓣评分 4.5/10 from 7484 users
◎ 
◎片  长 98分钟
◎导  演 约什·布恩 Josh Boone
◎编  剧 约什·布恩 Josh Boone / 内特·李 Knate Lee / 克里斯·克雷蒙 Chris Claremont / 莱恩·韦恩 Len Wein / 戴夫·科克勒姆 Dave Cockrum
◎主  演 麦茜·威廉姆斯 Maisie Williams
       安雅·泰勒-乔伊 Anya Taylor-Joy
       查理·希顿 Charlie Heaton
       艾莉丝·布拉加 Alice Braga
       布鲁·亨特 Blu Hunt
       亨利·扎格 Henry Zaga
       亚当·比奇 Adam Beach
       Colbi Gannett
       海皮·安德森 Happy Anderson
       玛丽莲·曼森 Marilyn Manson

◎标  签 X战警 | 科幻 | 漫威 | 美国 | X-Men | Marvel | 超级英雄 | 漫画改编

◎简  介

  当五位拥有特殊能力的青少年被关入秘密机构,有一股超自然恶势力正蠢蠢欲动,他们必须面对过去的罪恶,但内心的恐惧即将成真。神秘的背后似乎有巨大的阴谋正在成形,他们是否能勇敢对抗自身的力量,逃脱这一切枷锁……

◎获奖情况

  第6届豆瓣电影年度榜单 ?(2019)
  最值得期待的外语电影(提名)
Video
ID                                       : 1
Format                                   : HEVC
Format/Info                              : High Efficiency Video Coding
Format profile                           : Main @High
Codec ID                                 : V_MPEGH/ISO/HEVC
Duration                                 : 1 h 34 min
Bit rate                                 : 29.2 Mb/s
Width                                    : 3 840 pixels
Height                                   : 2 076 pixels
Display aspect ratio                     : 1.85:1
Frame rate mode                          : Constant
Frame rate                               : 23.976 (24000/1001/189150) FPS
Color space                              : YUV
Chroma subsampling                       : 4:2:0
Bit depth                                : 10 bits
Bits/(Pixel*Frame)                       : 0.153
Stream size                              : 19.2 GiB (77%)
Title                                    : The.New.Mutants.2020.2160p.BluRay.x265.10bit.SDR.DTS-HD.MA.TrueHD.7.1.Atmos-SWTYBLZ
Writing library                          : x265 3.0ed72af837053:[Windows][GCC 8.2.0][64 bit] 10bit
Encoding settings                        : cpuid=1111039 / frame-threads=6 / numa-pools=40 / wpp / no-pmode / no-pme / no-psnr / no-ssim / log-level=2 / input-csp=1 / input-res=3840x2076 / interlace=0 / total-frames=135319 / level-idc=51 / high-tier=1 / uhd-bd=0 / ref=3 / no-allow-non-conformance / repeat-headers / annexb / aud / hrd / info / hash=0 / no-temporal-layers / no-open-gop / min-keyint=1 / keyint=24 / gop-lookahead=0 / bframes=4 / b-adapt=2 / b-pyramid / bframe-bias=0 / rc-lookahead=25 / lookahead-slices=4 / scenecut=40 / radl=0 / no-splice / no-intra-refresh / ctu=64 / min-cu-size=8 / no-rect / no-amp / max-tu-size=32 / tu-inter-depth=1 / tu-intra-depth=1 / limit-tu=0 / rdoq-level=0 / dynamic-rd=0.00 / no-ssim-rd / signhide / no-tskip / nr-intra=0 / nr-inter=0 / no-constrained-intra / strong-intra-smoothing / max-merge=2 / limit-refs=3 / no-limit-modes / me=1 / subme=2 / merange=57 / temporal-mvp / weightp / no-weightb / no-analyze-src-pics / deblock=0:0 / no-sao / no-sao-non-deblock / rd=3 / no-early-skip / rskip / no-fast-intra / no-tskip-fast / no-cu-lossless / no-b-intra / no-splitrd-skip / rdpenalty=0 / psy-rd=2.00 / psy-rdoq=0.00 / no-rd-refine / no-lossless / cbqpoffs=0 / crqpoffs=0 / rc=crf / crf=16.0 / qcomp=0.60 / qpstep=4 / stats-write=0 / stats-read=0 / vbv-maxrate=160000 / vbv-bufsize=160000 / vbv-init=0.9 / crf-max=0.0 / crf-min=0.0 / ipratio=1.40 / pbratio=1.30 / aq-mode=1 / aq-strength=1.00 / cutree / zone-count=0 / no-strict-cbr / qg-size=32 / no-rc-grain / qpmax=69 / qpmin=0 / no-const-vbv / sar=1 / overscan=0 / videoformat=5 / range=0 / colorprim=2 / transfer=2 / colormatrix=2 / chromaloc=0 / display-window=0 / max-cll=0,0 / min-luma=0 / max-luma=1023 / log2-max-poc-lsb=8 / vui-timing-info / vui-hrd-info / slices=1 / opt-qp-pps / opt-ref-list-length-pps / no-multi-pass-opt-rps / scenecut-bias=0.05 / no-opt-cu-delta-qp / no-aq-motion / no-hdr / no-hdr-opt / no-dhdr10-opt / no-idr-recovery-sei / analysis-reuse-level=5 / scale-factor=0 / refine-intra=0 / refine-inter=0 / refine-mv=0 / refine-ctu-distortion=0 / no-limit-sao / ctu-info=0 / no-lowpass-dct / refine-analysis-type=0 / copy-pic=1 / max-ausize-factor=1.0 / no-dynamic-refine / no-single-sei / no-hevc-aq / qp-adaptation-range=1.00
Default                                  : Yes
Forced                                   : No

Audio #1
ID                                       : 2
Format                                   : MLP FBA 16-ch
Format/Info                              : Meridian Lossless Packing FBA with 16-channel presentation
Commercial name                          : Dolby TrueHD with Dolby Atmos
Codec ID                                 : A_TRUEHD
Duration                                 : 1 h 34 min
Bit rate mode                            : Variable
Bit rate                                 : 4 125 kb/s
Maximum bit rate                         : 8 931 kb/s
Channel(s)                               : 8 channels
Channel layout                           : L R C LFE Ls Rs Lb Rb
Sampling rate                            : 48.0 kHz
Frame rate                               : 1 200.000 FPS (40 SPF)
Compression mode                         : Lossless
Stream size                              : 2.71 GiB (11%)
Title                                    : The.New.Mutants.2020.2160p.BluRay.x265.10bit.SDR.DTS-HD.MA.TrueHD.7.1.Atmos-SWTYBLZ
Language                                 : English
Default                                  : Yes
Forced                                   : No
Number of dynamic objects                : 13
Bed channel count                        : 1 channel
Bed channel configuration                : LFE

Audio #2
ID                                       : 3
Format                                   : DTS XLL
Format/Info                              : Digital Theater Systems
Commercial name                          : DTS-HD Master Audio
Codec ID                                 : A_DTS
Duration                                 : 1 h 34 min
Bit rate mode                            : Variable
Bit rate                                 : 3 981 kb/s
Channel(s)                               : 8 channels
Channel layout                           : C L R LFE Lb Rb Lss Rss
Sampling rate                            : 48.0 kHz
Frame rate                               : 93.750 FPS (512 SPF)
Bit depth                                : 24 bits
Compression mode                         : Lossless
Stream size                              : 2.62 GiB (10%)
Title                                    : The.New.Mutants.2020.2160p.BluRay.x265.10bit.SDR.DTS-HD.MA.TrueHD.7.1.Atmos-SWTYBLZ
Language                                 : English
Default                                  : No
Forced                                   : No

Audio #3
ID                                       : 4
Format                                   : AC-3
Format/Info                              : Audio Coding 3
Commercial name                          : Dolby Digital
Codec ID                                 : A_AC3
Duration                                 : 1 h 34 min
Bit rate mode                            : Constant
Bit rate                                 : 640 kb/s
Channel(s)                               : 6 channels
Channel layout                           : L R C LFE Ls Rs
Sampling rate                            : 48.0 kHz
Frame rate                               : 31.250 FPS (1536 SPF)
Compression mode                         : Lossy
Stream size                              : 431 MiB (2%)
Title                                    : The.New.Mutants.2020.2160p.BluRay.x265.10bit.SDR.DTS-HD.MA.TrueHD.7.1.Atmos-SWTYBLZ
Language                                 : English
Service kind                             : Complete Main
Default                                  : No
Forced                                   : No

Text #1
ID                                       : 5
Format                                   : UTF-8
Codec ID                                 : S_TEXT/UTF8
Codec ID/Info                            : UTF-8 Plain Text
Duration                                 : 1 h 26 min
Bit rate                                 : 39 b/s
Count of elements                        : 1029
Stream size                              : 25.1 KiB (0%)
Title                                    : English-SRT
Language                                 : English
Default                                  : Yes
Forced                                   : No

Text #2
ID                                       : 6
Format                                   : PGS
Muxing mode                              : zlib
Codec ID                                 : S_HDMV/PGS
Codec ID/Info                            : Picture based subtitle format used on BDs/HD-DVDs
Duration                                 : 1 h 26 min
Bit rate                                 : 34.6 kb/s
Count of elements                        : 2686
Stream size                              : 21.3 MiB (0%)
Title                                    : English-PGS
Language                                 : English
Default                                  : No
Forced                                   : No

Text #3
ID                                       : 7
Format                                   : PGS
Muxing mode                              : zlib
Codec ID                                 : S_HDMV/PGS
Codec ID/Info                            : Picture based subtitle format used on BDs/HD-DVDs
Duration                                 : 1 h 33 min
Bit rate                                 : 25.2 kb/s
Count of elements                        : 2020
Stream size                              : 16.8 MiB (0%)
Title                                    : French-PGS
Language                                 : French
Default                                  : No
Forced                                   : No

Text #4
ID                                       : 8
Format                                   : PGS
Muxing mode                              : zlib
Codec ID                                 : S_HDMV/PGS
Codec ID/Info                            : Picture based subtitle format used on BDs/HD-DVDs
Duration                                 : 1 h 33 min
Bit rate                                 : 21.1 kb/s
Count of elements                        : 1846
Stream size                              : 14.1 MiB (0%)
Title                                    : French-PGS
Language                                 : French
Default                                  : No
Forced                                   : No

Text #5
ID                                       : 9
Format                                   : PGS
Muxing mode                              : zlib
Codec ID                                 : S_HDMV/PGS
Codec ID/Info                            : Picture based subtitle format used on BDs/HD-DVDs
Duration                                 : 1 h 33 min
Bit rate                                 : 23.4 kb/s
Count of elements                        : 1918
Stream size                              : 15.6 MiB (0%)
Title                                    : German-PGS
Language                                 : German
Default                                  : No
Forced                                   : No

Text #6
ID                                       : 10
Format                                   : PGS
Muxing mode                              : zlib
Codec ID                                 : S_HDMV/PGS
Codec ID/Info                            : Picture based subtitle format used on BDs/HD-DVDs
Duration                                 : 1 h 26 min
Bit rate                                 : 26.5 kb/s
Count of elements                        : 1980
Stream size                              : 16.3 MiB (0%)
Title                                    : Spanish-PGS
Language                                 : Spanish
Default                                  : No
Forced                                   : No

Menu
00:00:00.000                             : en:Chapter 1
00:02:39.951                             : en:Chapter 2
00:08:07.737                             : en:Chapter 3
00:10:53.862                             : en:Chapter 4
00:14:33.039                             : en:Chapter 5
00:17:23.918                             : en:Chapter 6
00:19:53.067                             : en:Chapter 7
00:23:41.879                             : en:Chapter 8
00:27:54.590                             : en:Chapter 9
00:30:30.078                             : en:Chapter 10
00:33:26.588                             : en:Chapter 11
00:39:36.791                             : en:Chapter 12
00:43:12.965                             : en:Chapter 13
00:47:53.287                             : en:Chapter 14
00:50:35.157                             : en:Chapter 15
00:52:12.254                             : en:Chapter 16
00:55:28.825                             : en:Chapter 17
00:57:13.055                             : en:Chapter 18
01:00:17.113                             : en:Chapter 19
01:02:37.754                             : en:Chapter 20
01:06:36.367                             : en:Chapter 21
01:11:12.101                             : en:Chapter 22
01:13:44.462                             : en:Chapter 23
01:15:07.878                             : en:Chapter 24
01:18:57.107                             : en:Chapter 25
01:21:52.366                             : en:Chapter 26
01:24:32.276                             : en:Chapter 27
01:26:46.201                             : en:Chapter 28
[/url][/url][/url][/url][/url][/url]



                                                                                                                                                                                                        
                                                                                                                                                                                                                                                                                                                                                                                                                                                                                                                                                                                                                                                                                                                                                                                                                                                         b7e97b87b025ae7585450263b5aad40c.zip (63.69 KB, 下载次数: 0)

回复

使用道具 举报

小黑屋|百度云资源论坛 |网站地图

本网站所有资源来自网络,如无意中侵犯了您的权益,请发邮件至 [email protected],立即清除相关链接

GMT+8, 2020-12-5 13:54 , Processed in 0.101872 second(s), 23 queries .

Powered by Discuz! X3.2

© 2001-2013 Comsenz Inc.

快速回复 返回顶部 返回列表