百度云资源论坛

 找回密码
 立即注册
搜索

[BD-4K] 生化危机3:灭绝 Resident.Evil.Extinction.2007.2160p.BluRay.x265.10bit.SD...

[复制链接]
百度云电影 发表于 2020-11-16 11:14:53 | 显示全部楼层 |阅读模式
帖子完整标题:生化危机3:灭绝 Resident.Evil.Extinction.2007.2160p.BluRay.x265.10bit.SDR.DTS-HD.MA.TrueHD.7.1.Atmos-SWTYBLZ 30.05GB


[/url]

◎译  名 生化危机3:灭绝/Resident Evil 3/恶灵古堡3:大灭绝/生化危机:绝种生还者/生化危机3/生化危机3:劫后余生
◎片  名 Resident Evil: Extinction
◎年  代 2007
◎产  地 美国,法国,澳大利亚,德国,英国
◎类  别 动作 / 科幻 / 恐怖
◎语  言 英语
◎上映日期 2007-09-21(美国)
◎IMDb评分  6.3/10 from 181930 users
◎  
◎豆瓣评分 7.3/10 from 163917 users
◎ 
◎片  长 95 分钟(美国)
◎导  演 拉塞尔·穆卡希 Russell Mulcahy
◎编  剧 保罗·安德森 Paul W.S. Anderson
◎主  演 米拉·乔沃维奇 Milla Jovovich
       奥德·菲尔 Oded Fehr
       伊恩·格雷 Iain Glen
       艾丽·拉特 Ali Larter
       亚香缇 Ashanti
       黄笑嬿 Xiaoyan Huang
       加里·A·赫克 Gary A. Hecker
       加里·哈德逊 Gary Hudson
       克里斯托弗·艾甘 Christopher Egan
       吉奥夫·米德 Geoff Meed
       杰森·奥玛拉 Jason O'Mara
       玛德琳·卡罗尔 Madeline Carroll
       马修·马斯登 Matthew Marsden
       迈克·艾普斯 Mike Epps
       彼特·奥梅拉 Peter O'Meara
       史宾塞·洛克 Spencer Locke
       林登·阿什比 Linden Ashby
       里克·克拉梅尔 Rick Cramer
       拉蒙·弗兰克 Ramón Franco
       克里克·B·R·沃勒尔 Kirk B.R. Woller
       鲁斯蒂·乔伊纳 Rusty Joiner
       Shane Woodson

◎标  签 科幻 | 生化危机 | 美国 | 动作 | 惊悚 | 恐怖 | 游戏改编 | 丧尸

◎简  介

  爱丽丝(米拉?乔沃维奇 Milla Jovovich 饰)被保护伞公司实验室复制,成了伊萨克博士(伊恩?格雷 Iain Glen 饰)的研究标本。因为她体内的DNA可以对抗T-病毒,所以博士以此来提升僵尸的杀伤力。爱丽丝接到了人类的求救信号,但却中了奸计,几经拼杀,方才自救。她如释重负,然而在睡梦中,她却强烈地感受体内强大力量的召唤,显然保护伞公司实验室对她做了手脚。而且,伊萨克博士还给僵尸注入了人类血液,激活其人类的心智。僵尸变得更强大,根本无法被控制,他们残忍地杀害了实验室助手,被训练对付爱丽丝。3年后,地球成了不毛之地。内华达州的幸存者结成了同盟,爱丽丝也在其中,但是她不敢表露身份,因为实验室给了她超能力,同时也让她被迫做了间谍。爱丽丝被孤立,只有卡洛斯懂得她的苦衷,二人也因此陷入了暧昧之中……
[quote]Video
ID                                       : 1
Format                                   : HEVC
Format/Info                              : High Efficiency Video Coding
Format profile                           : Main @High
Codec ID                                 : V_MPEGH/ISO/HEVC
Duration                                 : 1 h 34 min
Bit rate                                 : 37.0 Mb/s
Width                                    : 3 840 pixels
Height                                   : 1 606 pixels
Display aspect ratio                     : 2.40:1
Frame rate mode                          : Constant
Frame rate                               : 23.976 (24000/1001/189150) FPS
Color space                              : YUV
Chroma subsampling                       : 4:2:0
Bit depth                                : 10 bits
Bits/(Pixel*Frame)                       : 0.250
Stream size                              : 24.3 GiB (81%)
Title                                    : Resident.Evil.Extinction.2007.2160p.BluRay.x265.10bit.SDR.DTS-HD.MA.TrueHD.7.1.Atmos-SWTYBLZ
Writing library                          : x265 3.0ed72af837053:[Windows][GCC 8.2.0][64 bit] 10bit
Encoding settings                        : cpuid=1111039 / frame-threads=6 / numa-pools=40 / wpp / no-pmode / no-pme / no-psnr / no-ssim / log-level=2 / input-csp=1 / input-res=3840x1606 / interlace=0 / total-frames=135360 / level-idc=51 / high-tier=1 / uhd-bd=0 / ref=3 / no-allow-non-conformance / repeat-headers / annexb / aud / hrd / info / hash=0 / no-temporal-layers / no-open-gop / min-keyint=1 / keyint=24 / gop-lookahead=0 / bframes=4 / b-adapt=2 / b-pyramid / bframe-bias=0 / rc-lookahead=25 / lookahead-slices=4 / scenecut=40 / radl=0 / no-splice / no-intra-refresh / ctu=64 / min-cu-size=8 / no-rect / no-amp / max-tu-size=32 / tu-inter-depth=1 / tu-intra-depth=1 / limit-tu=0 / rdoq-level=0 / dynamic-rd=0.00 / no-ssim-rd / signhide / no-tskip / nr-intra=0 / nr-inter=0 / no-constrained-intra / strong-intra-smoothing / max-merge=2 / limit-refs=3 / no-limit-modes / me=1 / subme=2 / merange=57 / temporal-mvp / weightp / no-weightb / no-analyze-src-pics / deblock=0:0 / no-sao / no-sao-non-deblock / rd=3 / no-early-skip / rskip / no-fast-intra / no-tskip-fast / no-cu-lossless / no-b-intra / no-splitrd-skip / rdpenalty=0 / psy-rd=2.00 / psy-rdoq=0.00 / no-rd-refine / no-lossless / cbqpoffs=0 / crqpoffs=0 / rc=crf / crf=16.0 / qcomp=0.60 / qpstep=4 / stats-write=0 / stats-read=0 / vbv-maxrate=160000 / vbv-bufsize=160000 / vbv-init=0.9 / crf-max=0.0 / crf-min=0.0 / ipratio=1.40 / pbratio=1.30 / aq-mode=1 / aq-strength=1.00 / cutree / zone-count=0 / no-strict-cbr / qg-size=32 / no-rc-grain / qpmax=69 / qpmin=0 / no-const-vbv / sar=1 / overscan=0 / videoformat=5 / range=0 / colorprim=2 / transfer=2 / colormatrix=2 / chromaloc=0 / display-window=0 / max-cll=0,0 / min-luma=0 / max-luma=1023 / log2-max-poc-lsb=8 / vui-timing-info / vui-hrd-info / slices=1 / opt-qp-pps / opt-ref-list-length-pps / no-multi-pass-opt-rps / scenecut-bias=0.05 / no-opt-cu-delta-qp / no-aq-motion / no-hdr / no-hdr-opt / no-dhdr10-opt / no-idr-recovery-sei / analysis-reuse-level=5 / scale-factor=0 / refine-intra=0 / refine-inter=0 / refine-mv=0 / refine-ctu-distortion=0 / no-limit-sao / ctu-info=0 / no-lowpass-dct / refine-analysis-type=0 / copy-pic=1 / max-ausize-factor=1.0 / no-dynamic-refine / no-single-sei / no-hevc-aq / qp-adaptation-range=1.00
Default                                  : Yes
Forced                                   : No

Audio #1
ID                                       : 2
ID in the original source medium         : 4352 (0x1100)
Format                                   : MLP FBA 16-ch
Format/Info                              : Meridian Lossless Packing FBA with 16-channel presentation
Commercial name                          : Dolby TrueHD with Dolby Atmos
Codec ID                                 : A_TRUEHD
Duration                                 : 1 h 34 min
Bit rate mode                            : Variable
Bit rate                                 : 3 395 kb/s
Maximum bit rate                         : 5 565 kb/s
Channel(s)                               : 8 channels
Channel layout                           : L R C LFE Ls Rs Lb Rb
Sampling rate                            : 48.0 kHz
Frame rate                               : 1 200.000 FPS (40 SPF)
Compression mode                         : Lossless
Stream size                              : 2.23 GiB (7%)
Title                                    : Resident.Evil.Extinction.2007.2160p.BluRay.x265.10bit.SDR.DTS-HD.MA.TrueHD.7.1.Atmos-SWTYBLZ
Language                                 : English
Default                                  : Yes
Forced                                   : No
Original source medium                   : Blu-ray
Number of dynamic objects                : 11
Bed channel count                        : 1 channel
Bed channel configuration                : LFE

Audio #2
ID                                       : 3
Format                                   : DTS XLL
Format/Info                              : Digital Theater Systems
Commercial name                          : DTS-HD Master Audio
Codec ID                                 : A_DTS
Duration                                 : 1 h 34 min
Bit rate mode                            : Variable
Bit rate                                 : 4 184 kb/s
Channel(s)                               : 8 channels
Channel layout                           : C L R LFE Lb Rb Lss Rss
Sampling rate                            : 48.0 kHz
Frame rate                               : 93.750 FPS (512 SPF)
Bit depth                                : 24 bits
Compression mode                         : Lossless
Stream size                              : 2.75 GiB (9%)
Title                                    : Resident.Evil.Extinction.2007.2160p.BluRay.x265.10bit.SDR.DTS-HD.MA.TrueHD.7.1.Atmos-SWTYBLZ
Language                                 : English
Default                                  : No
Forced                                   : No

Audio #3
ID                                       : 4
ID in the original source medium         : 4352 (0x1100)
Format                                   : AC-3
Format/Info                              : Audio Coding 3
Commercial name                          : Dolby Digital
Codec ID                                 : A_AC3
Duration                                 : 1 h 34 min
Bit rate mode                            : Constant
Bit rate                                 : 640 kb/s
Channel(s)                               : 6 channels
Channel layout                           : L R C LFE Ls Rs
Sampling rate                            : 48.0 kHz
Frame rate                               : 31.250 FPS (1536 SPF)
Compression mode                         : Lossy
Stream size                              : 431 MiB (1%)
Title                                    : Resident.Evil.Extinction.2007.2160p.BluRay.x265.10bit.SDR.DTS-HD.MA.TrueHD.7.1.Atmos-SWTYBLZ
Language                                 : English
Service kind                             : Complete Main
Default                                  : No
Forced                                   : No
Original source medium                   : Blu-ray

Text #1
ID                                       : 5
Format                                   : UTF-8
Codec ID                                 : S_TEXT/UTF8
Codec ID/Info                            : UTF-8 Plain Text
Duration                                 : 1 h 28 min
Bit rate                                 : 27 b/s
Count of elements                        : 562
Stream size                              : 17.7 KiB (0%)
Title                                    : English-SRT
Language                                 : English
Default                                  : Yes
Forced                                   : No

Text #2
ID                                       : 6
ID in the original source medium         : 4768 (0x12A0)
Format                                   : PGS
Muxing mode                              : zlib
Codec ID                                 : S_HDMV/PGS
Codec ID/Info                            : Picture based subtitle format used on BDs/HD-DVDs
Duration                                 : 1 h 33 min
Bit rate                                 : 20.6 kb/s
Count of elements                        : 1703
Stream size                              : 13.7 MiB (0%)
Title                                    : English-SDH-PGS
Language                                 : English
Default                                  : No
Forced                                   : No
Original source medium                   : Blu-ray

Text #3
ID                                       : 7
ID in the original source medium         : 4769 (0x12A1)
Format                                   : PGS
Muxing mode                              : zlib
Codec ID                                 : S_HDMV/PGS
Codec ID/Info                            : Picture based subtitle format used on BDs/HD-DVDs
Duration                                 : 1 h 28 min
Bit rate                                 : 15.5 kb/s
Count of elements                        : 1130
Stream size                              : 9.83 MiB (0%)
Title                                    : English-PGS
Language                                 : English
Default                                  : No
Forced                                   : No
Original source medium                   : Blu-ray

Text #4
ID                                       : 8
ID in the original source medium         : 4770 (0x12A2)
Format                                   : PGS
Muxing mode                              : zlib
Codec ID                                 : S_HDMV/PGS
Codec ID/Info                            : Picture based subtitle format used on BDs/HD-DVDs
Duration                                 : 1 h 33 min
Bit rate                                 : 20.5 kb/s
Count of elements                        : 1705
Stream size                              : 13.7 MiB (0%)
Title                                    : English-SDH-PGS
Language                                 : English
Default                                  : No
Forced                                   : No
Original source medium                   : Blu-ray

Text #5
ID                                       : 9
ID in the original source medium         : 4771 (0x12A3)
Format                                   : PGS
Muxing mode                              : zlib
Codec ID                                 : S_HDMV/PGS
Codec ID/Info                            : Picture based subtitle format used on BDs/HD-DVDs
Duration                                 : 1 h 28 min
Bit rate                                 : 15.5 kb/s
Count of elements                        : 1130
Stream size                              : 9.83 MiB (0%)
Title                                    : English-PGS
Language                                 : English
Default                                  : No
Forced                                   : No
Original source medium                   : Blu-ray

Text #6
ID                                       : 10
ID in the original source medium         : 4772 (0x12A4)
Format                                   : PGS
Muxing mode                              : zlib
Codec ID                                 : S_HDMV/PGS
Codec ID/Info                            : Picture based subtitle format used on BDs/HD-DVDs
Duration                                 : 1 h 30 min
Bit rate                                 : 14.3 kb/s
Count of elements                        : 1034
Stream size                              : 9.18 MiB (0%)
Title                                    : Bulgarian-PGS
Language                                 : Bulgarian
Default                                  : No
Forced                                   : No
Original source medium                   : Blu-ray

Text #7
ID                                       : 11
ID in the original source medium         : 4773 (0x12A5)
Format                                   : PGS
Muxing mode                              : zlib
Codec ID                                 : S_HDMV/PGS
Codec ID/Info                            : Picture based subtitle format used on BDs/HD-DVDs
Duration                                 : 1 h 30 min
Bit rate                                 : 14.1 kb/s
Count of elements                        : 1180
Stream size                              : 9.06 MiB (0%)
Title                                    : Chinese-PGS
Language                                 : Chinese
Default                                  : No
Forced                                   : No
Original source medium                   : Blu-ray

Text #8
ID                                       : 12
ID in the original source medium         : 4774 (0x12A6)
Format                                   : PGS
Muxing mode                              : zlib
Codec ID                                 : S_HDMV/PGS
Codec ID/Info                            : Picture based subtitle format used on BDs/HD-DVDs
Duration                                 : 1 h 30 min
Bit rate                                 : 14.0 kb/s
Count of elements                        : 1150
Stream size                              : 9.00 MiB (0%)
Title                                    : Czech-PGS
Language                                 : Czech
Default                                  : No
Forced                                   : No
Original source medium                   : Blu-ray

Text #9
ID                                       : 13
ID in the original source medium         : 4775 (0x12A7)
Format                                   : PGS
Muxing mode                              : zlib
Codec ID                                 : S_HDMV/PGS
Codec ID/Info                            : Picture based subtitle format used on BDs/HD-DVDs
Duration                                 : 1 h 30 min
Bit rate                                 : 13.7 kb/s
Count of elements                        : 1048
Stream size                              : 8.85 MiB (0%)
Title                                    : Danish-PGS
Language                                 : Danish
Default                                  : No
Forced                                   : No
Original source medium                   : Blu-ray

Text #10
ID                                       : 14
ID in the original source medium         : 4776 (0x12A8)
Format                                   : PGS
Muxing mode                              : zlib
Codec ID                                 : S_HDMV/PGS
Codec ID/Info                            : Picture based subtitle format used on BDs/HD-DVDs
Duration                                 : 1 h 28 min
Bit rate                                 : 13.5 kb/s
Count of elements                        : 763
Stream size                              : 8.56 MiB (0%)
Title                                    : Estonian-PGS
Language                                 : Estonian
Default                                  : No
Forced                                   : No
Original source medium                   : Blu-ray

Text #11
ID                                       : 15
ID in the original source medium         : 4777 (0x12A9)
Format                                   : PGS
Muxing mode                              : zlib
Codec ID                                 : S_HDMV/PGS
Codec ID/Info                            : Picture based subtitle format used on BDs/HD-DVDs
Duration                                 : 1 h 30 min
Bit rate                                 : 13.4 kb/s
Count of elements                        : 1168
Stream size                              : 8.61 MiB (0%)
Title                                    : Finnish-PGS
Language                                 : Finnish
Default                                  : No
Forced                                   : No
Original source medium                   : Blu-ray

Text #12
ID                                       : 16
ID in the original source medium         : 4778 (0x12AA)
Format                                   : PGS
Muxing mode                              : zlib
Codec ID                                 : S_HDMV/PGS
Codec ID/Info                            : Picture based subtitle format used on BDs/HD-DVDs
Duration                                 : 1 h 30 min
Bit rate                                 : 13.6 kb/s
Count of elements                        : 1132
Stream size                              : 8.76 MiB (0%)
Title                                    : French-PGS
Language                                 : French
Default                                  : No
Forced                                   : No
Original source medium                   : Blu-ray

Text #13
ID                                       : 17
ID in the original source medium         : 4779 (0x12AB)
Format                                   : PGS
Muxing mode                              : zlib
Codec ID                                 : S_HDMV/PGS
Codec ID/Info                            : Picture based subtitle format used on BDs/HD-DVDs
Duration                                 : 1 h 30 min
Bit rate                                 : 13.2 kb/s
Count of elements                        : 1180
Stream size                              : 8.51 MiB (0%)
Title                                    : Hindi-PGS
Language                                 : Hindi
Default                                  : No
Forced                                   : No
Original source medium                   : Blu-ray

Text #14
ID                                       : 18
ID in the original source medium         : 4780 (0x12AC)
Format                                   : PGS
Muxing mode                              : zlib
Codec ID                                 : S_HDMV/PGS
Codec ID/Info                            : Picture based subtitle format used on BDs/HD-DVDs
Duration                                 : 1 h 30 min
Bit rate                                 : 13.1 kb/s
Count of elements                        : 1154
Stream size                              : 8.46 MiB (0%)
Title                                    : Hungarian-PGS
Language                                 : Hungarian
Default                                  : No
Forced                                   : No
Original source medium                   : Blu-ray

Text #15
ID                                       : 19
ID in the original source medium         : 4781 (0x12AD)
Format                                   : PGS
Muxing mode                              : zlib
Codec ID                                 : S_HDMV/PGS
Codec ID/Info                            : Picture based subtitle format used on BDs/HD-DVDs
Duration                                 : 1 h 30 min
Bit rate                                 : 14.8 kb/s
Count of elements                        : 1019
Stream size                              : 9.51 MiB (0%)
Title                                    : Icelandic-PGS
Language                                 : Icelandic
Default                                  : No
Forced                                   : No
Original source medium                   : Blu-ray

Text #16
ID                                       : 20
ID in the original source medium         : 4782 (0x12AE)
Format                                   : PGS
Muxing mode                              : zlib
Codec ID                                 : S_HDMV/PGS
Codec ID/Info                            : Picture based subtitle format used on BDs/HD-DVDs
Duration                                 : 1 h 30 min
Bit rate                                 : 16.4 kb/s
Count of elements                        : 1186
Stream size                              : 10.6 MiB (0%)
Title                                    : Italian-PGS
Language                                 : Italian
Default                                  : No
Forced                                   : No
Original source medium                   : Blu-ray

Text #17
ID                                       : 21
ID in the original source medium         : 4783 (0x12AF)
Format                                   : PGS
Muxing mode                              : zlib
Codec ID                                 : S_HDMV/PGS
Codec ID/Info                            : Picture based subtitle format used on BDs/HD-DVDs
Duration                                 : 1 h 22 min
Bit rate                                 : 11.3 kb/s
Count of elements                        : 1130
Stream size                              : 6.68 MiB (0%)
Title                                    : Japanese-PGS
Language                                 : Japanese
Default                                  : No
Forced                                   : No
Original source medium                   : Blu-ray

Text #18
ID                                       : 22
ID in the original source medium         : 4784 (0x12B0)
Format                                   : PGS
Muxing mode                              : zlib
Codec ID                                 : S_HDMV/PGS
Codec ID/Info                            : Picture based subtitle format used on BDs/HD-DVDs
Duration                                 : 1 h 30 min
Bit rate                                 : 12.2 kb/s
Count of elements                        : 1256
Stream size                              : 7.88 MiB (0%)
Title                                    : Korean-PGS
Language                                 : Korean
Default                                  : No
Forced                                   : No
Original source medium                   : Blu-ray

Text #19
ID                                       : 23
ID in the original source medium         : 4785 (0x12B1)
Format                                   : PGS
Muxing mode                              : zlib
Codec ID                                 : S_HDMV/PGS
Codec ID/Info                            : Picture based subtitle format used on BDs/HD-DVDs
Duration                                 : 1 h 30 min
Bit rate                                 : 15.3 kb/s
Count of elements                        : 1188
Stream size                              : 9.82 MiB (0%)
Title                                    : Lithuanian-PGS
Language

回复

使用道具 举报

小黑屋|百度云资源论坛 |网站地图

本网站所有资源来自网络,如无意中侵犯了您的权益,请发邮件至 [email protected],立即清除相关链接

GMT+8, 2020-12-5 13:53 , Processed in 0.090509 second(s), 20 queries .

Powered by Discuz! X3.2

© 2001-2013 Comsenz Inc.

快速回复 返回顶部 返回列表