百度云资源论坛

 找回密码
 立即注册
搜索

[BD-4K] 花木兰 Mulan.1998.2160p.BluRay.x265.10bit.SDR.DTS-HD.MA.TrueHD.7.1.Atmos-S...

[复制链接]
百度云电影 发表于 2020-11-14 10:31:00 | 显示全部楼层 |阅读模式
帖子完整标题:花木兰 Mulan.1998.2160p.BluRay.x265.10bit.SDR.DTS-HD.MA.TrueHD.7.1.Atmos-SWTYBLZ 28.83GB


[/url]

◎译  名 花木兰/China Doll/The Legend of Mulan/木兰
◎片  名 Mulan
◎年  代 1998
◎产  地 美国
◎类  别 剧情 / 动画 / 家庭 / 冒险
◎语  言 英语
◎上映日期 1998-06-19(美国)
◎IMDb评分  7.6/10 from 251791 users
◎  
◎豆瓣评分 7.9/10 from 200849 users
◎ 
◎片  长 88分钟
◎导  演 巴里·库克 Barry Cook / 托尼·班克罗夫特 Tony Bancroft
◎编  剧 萧丽塔 Rita Hsiao / 克里斯·桑德斯 Chris Sanders / 克里斯·威廉姆斯 Chris Williams / 艾伦·奥姆斯比 Alan Ormsby / 菲利普·拉泽布尼克 Philip LaZebnik / 罗娜·库克 Lorna Cook / 伯尼·马丁森 Burny Mattinson / 大卫·雷诺兹 David Reynolds / 杰夫·斯诺 Jeff Snow / 约翰·桑福德 John Sanford / 汤姆·恩里克斯 Thom Enriquez / 尼娅·波斯威克-辛格 Eugenia Bostwick-Singer / 罗伯特·D·圣苏西 Robert D. San Souci
◎主  演 温明娜 Ming-Na Wen
       艾迪·墨菲 Eddie Murphy
       哈维·费斯特恩 Harvey Fierstein
       米盖尔·弗尔 Miguel Ferrer
       吴汉章 James Hong
       成龙 Jackie Chan
       许晴 Qing Xu
       陈佩斯 Peisi Chen
       丽娅·萨隆加 Lea Salonga
       詹姆斯·繁田 James Shigeta
       胡立成 Licheng Hu
       党同义 Tongyi Dang
       田二喜 Erxi Tian
       弗雷达·福斯·沈 Freda Foh Shen
       路易莎·莱斯金 Luisa Leschin
       黄荣亮 B.D. Wong

◎标  签 动画 | 迪斯尼 | 美国 | 花木兰 | DISNEY | 动画片 | 美国电影 | 电影

◎简  介

  花木兰是家中的长女,性格爽朗率真,父母极力想帮女儿找到一个好归宿,可是多次努力未果。此时却收到了北方匈奴侵略的消息,朝廷召集各家各户的壮丁。木兰父亲也在名单之内,木兰不忍年迈残疾的父亲征战沙场,决定割掉长发,偷走父亲的盔甲,决定女扮男装代父从军。花家的祖先为了保护木兰,便派出了心地善良的木须从旁帮忙。从军的过程中,木兰凭着坚强意志,通过了一关又一关的艰苦训练,她的精神也感动了所有战友。就在战况告急的时候,她也被发现了女子的身份。她被遗留在雪地中,而最后也是她的及时出现,顺利协助大军击退了匈奴。

◎获奖情况

  第71届奥斯卡金像奖 ?(1999)
  音乐/喜剧片最佳原创配乐(提名) 大卫·齐普尔?/?马修·怀德?/?杰瑞·高德史密斯
  
  第56届金球奖 ?(1999)
  电影类最佳原创配乐(提名) 杰瑞·高德史密斯
  电影类最佳原创歌曲(提名) 马修·怀德?/?大卫·齐普尔
  
  第26届动画安妮奖 ?(1998)
  最佳动画长片
  最佳导演 巴里·库克?/?托尼·班克罗夫特
  最佳编剧 萧丽塔?/?克里斯·桑德斯?/?菲利普·拉泽布尼克?/?尼娅·波斯威克-辛格?/?雷蒙德·辛格
  最佳女配音 温明娜
  最佳配乐 大卫·齐普尔?/?马修·怀德?/?杰瑞·高德史密斯
  最佳制作 帕姆·科茨
  最佳分镜 克里斯·桑德斯
  最佳艺术指导 汉斯·巴切尔
  最佳动画角色 鲁本·A·阿奎罗
  最佳动画角色(提名) 汤姆·班克罗夫特?/?马克·亨
  最佳动画效果
Video
ID                                       : 1
Format                                   : HEVC
Format/Info                              : High Efficiency Video Coding
Format profile                           : Main @High
Codec ID                                 : V_MPEGH/ISO/HEVC
Duration                                 : 1 h 27 min
Bit rate                                 : 32.8 Mb/s
Width                                    : 3 600 pixels
Height                                   : 2 160 pixels
Display aspect ratio                     : 5:3
Frame rate mode                          : Constant
Frame rate                               : 23.976 (24000/1001/189150) FPS
Color space                              : YUV
Chroma subsampling                       : 4:2:0
Bit depth                                : 10 bits
Bits/(Pixel*Frame)                       : 0.176
Stream size                              : 20.1 GiB (70%)
Title                                    : Mulan.1998.2160p.BluRay.x265.10bit.SDR.DTS-HD.MA.TrueHD.7.1.Atmos-SWTYBLZ
Writing library                          : x265 3.0ed72af837053:[Windows][GCC 8.2.0][64 bit] 10bit
Encoding settings                        : cpuid=1111039 / frame-threads=6 / numa-pools=40 / wpp / no-pmode / no-pme / no-psnr / no-ssim / log-level=2 / input-csp=1 / input-res=3600x2160 / interlace=0 / total-frames=126379 / level-idc=51 / high-tier=1 / uhd-bd=0 / ref=3 / no-allow-non-conformance / repeat-headers / annexb / aud / hrd / info / hash=0 / no-temporal-layers / no-open-gop / min-keyint=1 / keyint=24 / gop-lookahead=0 / bframes=6 / b-adapt=2 / b-pyramid / bframe-bias=0 / rc-lookahead=25 / lookahead-slices=4 / scenecut=40 / radl=0 / no-splice / no-intra-refresh / ctu=64 / min-cu-size=8 / no-rect / no-amp / max-tu-size=32 / tu-inter-depth=1 / tu-intra-depth=1 / limit-tu=0 / rdoq-level=0 / dynamic-rd=0.00 / no-ssim-rd / signhide / no-tskip / nr-intra=0 / nr-inter=0 / no-constrained-intra / strong-intra-smoothing / max-merge=2 / limit-refs=3 / no-limit-modes / me=1 / subme=2 / merange=57 / temporal-mvp / weightp / no-weightb / no-analyze-src-pics / deblock=1:1 / no-sao / no-sao-non-deblock / rd=3 / no-early-skip / rskip / no-fast-intra / no-tskip-fast / no-cu-lossless / no-b-intra / no-splitrd-skip / rdpenalty=0 / psy-rd=0.40 / psy-rdoq=0.00 / no-rd-refine / no-lossless / cbqpoffs=0 / crqpoffs=0 / rc=crf / crf=12.0 / qcomp=0.60 / qpstep=4 / stats-write=0 / stats-read=0 / vbv-maxrate=160000 / vbv-bufsize=160000 / vbv-init=0.9 / crf-max=0.0 / crf-min=0.0 / ipratio=1.40 / pbratio=1.30 / aq-mode=1 / aq-strength=0.40 / cutree / zone-count=0 / no-strict-cbr / qg-size=32 / no-rc-grain / qpmax=69 / qpmin=0 / no-const-vbv / sar=1 / overscan=0 / videoformat=5 / range=0 / colorprim=2 / transfer=2 / colormatrix=2 / chromaloc=0 / display-window=0 / max-cll=0,0 / min-luma=0 / max-luma=1023 / log2-max-poc-lsb=8 / vui-timing-info / vui-hrd-info / slices=1 / opt-qp-pps / opt-ref-list-length-pps / no-multi-pass-opt-rps / scenecut-bias=0.05 / no-opt-cu-delta-qp / no-aq-motion / no-hdr / no-hdr-opt / no-dhdr10-opt / no-idr-recovery-sei / analysis-reuse-level=5 / scale-factor=0 / refine-intra=0 / refine-inter=0 / refine-mv=0 / refine-ctu-distortion=0 / no-limit-sao / ctu-info=0 / no-lowpass-dct / refine-analysis-type=0 / copy-pic=1 / max-ausize-factor=1.0 / no-dynamic-refine / no-single-sei / no-hevc-aq / qp-adaptation-range=1.00
Default                                  : Yes
Forced                                   : No

Audio #1
ID                                       : 2
ID in the original source medium         : 4352 (0x1100)
Format                                   : MLP FBA 16-ch
Format/Info                              : Meridian Lossless Packing FBA with 16-channel presentation
Commercial name                          : Dolby TrueHD with Dolby Atmos
Codec ID                                 : A_TRUEHD
Duration                                 : 1 h 27 min
Bit rate mode                            : Variable
Bit rate                                 : 8 951 kb/s
Maximum bit rate                         : 11.7 Mb/s
Channel(s)                               : 8 channels
Channel layout                           : L R C LFE Ls Rs Lb Rb
Sampling rate                            : 48.0 kHz
Frame rate                               : 1 200.000 FPS (40 SPF)
Compression mode                         : Lossless
Stream size                              : 5.49 GiB (19%)
Title                                    : Mulan.1998.2160p.BluRay.x265.10bit.SDR.DTS-HD.MA.TrueHD.7.1.Atmos-SWTYBLZ
Language                                 : English
Default                                  : Yes
Forced                                   : No
Original source medium                   : Blu-ray
Number of dynamic objects                : 13
Bed channel count                        : 1 channel
Bed channel configuration                : LFE

Audio #2
ID                                       : 3
Format                                   : DTS XLL
Format/Info                              : Digital Theater Systems
Commercial name                          : DTS-HD Master Audio
Codec ID                                 : A_DTS
Duration                                 : 1 h 27 min
Bit rate mode                            : Variable
Bit rate                                 : 4 178 kb/s
Channel(s)                               : 8 channels
Channel layout                           : C L R LFE Lb Rb Lss Rss
Sampling rate                            : 48.0 kHz
Frame rate                               : 93.750 FPS (512 SPF)
Bit depth                                : 24 bits
Compression mode                         : Lossless
Stream size                              : 2.56 GiB (9%)
Title                                    : Mulan.1998.2160p.BluRay.x265.10bit.SDR.DTS-HD.MA.TrueHD.7.1.Atmos-SWTYBLZ
Language                                 : English
Default                                  : No
Forced                                   : No

Audio #3
ID                                       : 4
ID in the original source medium         : 4352 (0x1100)
Format                                   : AC-3
Format/Info                              : Audio Coding 3
Commercial name                          : Dolby Digital
Codec ID                                 : A_AC3
Duration                                 : 1 h 27 min
Bit rate mode                            : Constant
Bit rate                                 : 640 kb/s
Channel(s)                               : 6 channels
Channel layout                           : L R C LFE Ls Rs
Sampling rate                            : 48.0 kHz
Frame rate                               : 31.250 FPS (1536 SPF)
Compression mode                         : Lossy
Stream size                              : 402 MiB (1%)
Title                                    : Mulan.1998.2160p.BluRay.x265.10bit.SDR.DTS-HD.MA.TrueHD.7.1.Atmos-SWTYBLZ
Language                                 : English
Service kind                             : Complete Main
Default                                  : No
Forced                                   : No
Original source medium                   : Blu-ray

Text #1
ID                                       : 5
Format                                   : UTF-8
Codec ID                                 : S_TEXT/UTF8
Codec ID/Info                            : UTF-8 Plain Text
Duration                                 : 1 h 25 min
Bit rate                                 : 47 b/s
Count of elements                        : 996
Stream size                              : 29.7 KiB (0%)
Title                                    : English-SRT
Language                                 : English
Default                                  : Yes
Forced                                   : No

Text #2
ID                                       : 6
ID in the original source medium         : 4768 (0x12A0)
Format                                   : PGS
Muxing mode                              : zlib
Codec ID                                 : S_HDMV/PGS
Codec ID/Info                            : Picture based subtitle format used on BDs/HD-DVDs
Duration                                 : 1 h 26 min
Bit rate                                 : 37.1 kb/s
Count of elements                        : 2536
Stream size                              : 22.9 MiB (0%)
Title                                    : English-PGS
Language                                 : English
Default                                  : No
Forced                                   : No
Original source medium                   : Blu-ray

Text #3
ID                                       : 7
ID in the original source medium         : 4769 (0x12A1)
Format                                   : PGS
Muxing mode                              : zlib
Codec ID                                 : S_HDMV/PGS
Codec ID/Info                            : Picture based subtitle format used on BDs/HD-DVDs
Duration                                 : 1 h 19 min
Bit rate                                 : 30.7 kb/s
Count of elements                        : 1746
Stream size                              : 17.5 MiB (0%)
Title                                    : French-PGS
Language                                 : French
Default                                  : No
Forced                                   : No
Original source medium                   : Blu-ray

Text #4
ID                                       : 8
ID in the original source medium         : 4770 (0x12A2)
Format                                   : PGS
Muxing mode                              : zlib
Codec ID                                 : S_HDMV/PGS
Codec ID/Info                            : Picture based subtitle format used on BDs/HD-DVDs
Duration                                 : 1 h 19 min
Bit rate                                 : 28.8 kb/s
Count of elements                        : 1744
Stream size                              : 16.4 MiB (0%)
Title                                    : Spanish-PGS
Language                                 : Spanish
Default                                  : No
Forced                                   : No
Original source medium                   : Blu-ray

Menu
00:00:00.000                             : en:Chapter 01
00:00:59.851                             : en:Chapter 02
00:03:07.020                             : en:Chapter 03
00:06:07.367                             : en:Chapter 04
00:09:07.088                             : en:Chapter 05
00:11:55.506                             : en:Chapter 06
00:14:14.144                             : en:Chapter 07
00:17:23.250                             : en:Chapter 08
00:20:25.515                             : en:Chapter 09
00:23:14.726                             : en:Chapter 10
00:25:26.775                             : en:Chapter 11
00:26:57.616                             : en:Chapter 12
00:29:11.249                             : en:Chapter 13
00:32:55.014                             : en:Chapter 14
00:34:49.879                             : en:Chapter 15
00:37:31.832                             : en:Chapter 16
00:42:08.275                             : en:Chapter 17
00:45:50.539                             : en:Chapter 18
00:46:45.928                             : en:Chapter 19
00:47:34.351                             : en:Chapter 20
00:49:49.361                             : en:Chapter 21
00:54:38.942                             : en:Chapter 22
00:59:50.044                             : en:Chapter 23
01:04:21.023                             : en:Chapter 24
01:06:02.792                             : en:Chapter 25
01:08:47.456                             : en:Chapter 26
01:11:41.630                             : en:Chapter 27
01:15:44.790                             : en:Chapter 28
01:18:53.603                             : en:Chapter 29
01:20:57.978                             : en:Chapter 30
[/url][/url][/url][/url][/url][/url][/url]



                                                                                                                                                                                                        
                                                                                                                                                                                                                                                                                                                                                                                                                                                                                                                                                                                                                                                                                                                                                                                                                                                         eb04263c609c25ea10fc597d159ed067.zip (72.82 KB, 下载次数: 0)

回复

使用道具 举报

小黑屋|百度云资源论坛 |网站地图

本网站所有资源来自网络,如无意中侵犯了您的权益,请发邮件至 [email protected],立即清除相关链接

GMT+8, 2020-12-6 08:52 , Processed in 0.103493 second(s), 23 queries .

Powered by Discuz! X3.2

© 2001-2013 Comsenz Inc.

快速回复 返回顶部 返回列表