百度云资源论坛

 找回密码
 立即注册
搜索

[4K-原盘] 权力的游戏 第一季 Game.of.Thrones.S04.2160p.BluRay.REMUX.HEVC.DTS-HD.MA.TrueHD.7 ...

[复制链接]
百度云资源 发表于 2020-11-12 09:27:32 | 显示全部楼层 |阅读模式
-->
帖子完整标题:权力的游戏 第一季 Game.of.Thrones.S04.2160p.BluRay.REMUX.HEVC.DTS-HD.MA.TrueHD.7.1.Atmos-FGT 289.66GB




◎译  名 权力的游戏 第一季/A Song of Ice and Fire: Game of Thrones Season 1/冰与火之歌:权力的游戏 第一季/王座游戏 第一季
◎片  名 Game of Thrones Season 1
◎年  代 2011
◎产  地 美国,英国
◎类  别 剧情 / 奇幻 / 冒险
◎语  言 英语,多斯拉克语
◎上映日期 2011-04-17(美国)
◎IMDb评分  9.3/10 from 1724345 users
◎  https://www.imdb.com/title/tt0944947/
◎豆瓣评分 9.4/10 from 314960 users
◎ 
◎集  数 10
◎片  长 60分钟
◎导  演 蒂莫西·范·帕腾 Timothy Van Patten / 布莱恩·柯克 Brian Kirk / 丹尼尔·米纳汉 Daniel Minahan / 阿兰·泰勒 Alan Taylor
◎编  剧 戴维·贝尼奥夫 David Benioff / D·B·威斯 D.B. Weiss / 乔治·马丁 George R.R. Martin / 布莱恩·考格曼 Bryan Cogman / Jane Espenson
◎主  演 伊萨克·亨普斯特德-怀特 Isaac Hempstead-Wright
       查尔斯·丹斯 Charles Dance
       约翰·C·布莱德利 John C. Bradley
       罗恩·多纳基 Ron Donachie
       伊恩·麦克尔希尼 Ian McElhinney
       肖恩·宾 Sean Bean
       米歇尔·费尔利 Michelle Fairley
       艾米莉亚·克拉克 Emilia Clarke
       伊恩·格雷 Iain Glen
       基特·哈灵顿 Kit Harington
       尼古拉·科斯特-瓦尔道 Nikolaj Coster-Waldau
       阿米拉·加扎拉 Amira Ghazalla
       米尔托斯·耶罗勒曼 Miltos Yerolemou
       埃罗斯·维拉霍斯 Eros Vlahos
       伊莱耶斯·加贝尔 Elyes Gabel
       阿特·帕金森 Art Parkinson
       爱丽达·阿察瑞儿 Amrita Acharia
       侬索·阿诺斯 Nonso Anozie
       伊恩·怀特 Ian Whyte
       约瑟夫·阿尔京 Josef Altin
       大卫·布拉德利 David Bradley
       马克·斯坦利 Mark Stanley
       Rob Ostlere
       伊恩·比蒂 Ian Beattie
       艾米·理查森 Aimee Richardson
       Brendan McCormack
       利诺·法希奥利 Lino Facioli
       欧文·蒂尔 Owen Teale
       马克·路易斯·琼斯 Mark Lewis Jones
       彼特·丁拉基 Peter Dinklage
       杰佛逊·豪尔 Jefferson Hall
       柯南·史蒂文斯 Conan Stevens
       凯特·迪基 Kate Dickie
       詹姆斯·科兹莫 James Cosmo
       麦茜·威廉姆斯 Maisie Williams
       马克·阿蒂 Mark Addy
       杰森·莫玛 Jason Momoa
       格辛·安东尼 Gethin Anthony
       理查德·麦登 Richard Madden
       艾丹·吉伦 Aidan Gillen
       哈里·劳埃德 Harry Lloyd
       娜塔丽·特纳 Natalia Tena
       埃斯梅·比安科 Esmé Bianco
       阿尔菲·艾伦 Alfie Allen
       康勒斯·希尔 Conleth Hill
       皮特·沃恩 Peter Vaughan
       朱利安·格洛弗 Julian Glover
       杰罗姆·弗林 Jerome Flynn
       罗伊·麦克凯恩 Rory McCann
       罗姗妮·麦琪 Roxanne McKee
       菲恩·琼斯 Finn Jones
       尤金·西蒙 Eugene Michael Simon
       杰克·格里森 Jack Gleeson
       苏菲·特纳 Sophie Turner
       克莱夫·曼特尔 Clive Mantle
       唐纳德·桑普特 Donald Sumpter
       西贝尔·凯基莉 Sibel Kekilli
       约瑟夫·马勒 Joseph Mawle
       埃蒙·埃利奥特 Emun Elliott
       约瑟夫·戴浦西 Joe Dempsie
       杰米·西弗斯 Jamie Sives
       琳娜·海蒂 Lena Headey

◎标  签 美剧 | 史诗 | HBO | 奇幻 | 魔幻 | 美国 | 电视剧 | 2011

◎简  介

  《权力的游戏》是一部中世纪史诗奇幻题材的电视连续剧,该剧以美国作家乔治·R·R·马丁的奇幻巨作《冰与火之歌》七部曲为基础改编创作。
  
  故事背景中虚构的世界,分为两片大陆:位于西面的“日落国度”维斯特洛;位于东面的类似亚欧大陆。维斯特洛大陆边境处发现远古传说中早已灭绝的生物开始,危险也渐渐在靠近这里。这片大陆的临冬城主暨北境统领艾德史塔克家族也迎来了老友兼国王劳勃·拜拉席恩的来访。国王希望艾德·史塔克(肖恩·宾 Sean Bean 饰)能担任首相一职,对抗企图夺取铁王座的叛军。危情一触即发,整个王国看似平和的表面下却是波涛暗涌。权高位重的拜拉席恩家族、勇敢善良的史塔克家族、企图谋取王位的坦格利安家族、有着不可告人秘密的兰尼斯特家族。这些家族各怀鬼胎,这个国家将会陷入一场混战.....

◎获奖情况

  第69届金球奖 ?(2012)
  电视类最佳剧情类剧集(提名)
  电视类最佳男配角 彼特·丁拉基
  
  第28届MTV电影奖 ?(2019)
  MTV电影奖最佳英雄形象(提名) 麦茜·威廉姆斯
  
  第27届MTV电影奖 ?(2018)
  MTV电影奖剧集最佳表演(提名) 麦茜·威廉姆斯
  MTV电影奖最佳英雄形象(提名) 艾米莉亚·克拉克
  
  第12届美国视觉效果协会奖 ?(2014)
  最佳广告/广播节目CG背景(提名) 帕特里克·赞蒂斯?/?梅于尔·帕特尔
  
  第12届美国电影学会奖 ?(2011)
  年度佳剧
  
  第22届上海电视节白玉兰奖 ?(2016)
  电视连续剧最佳海外电视剧(长)
  
  第6届豆瓣电影年度榜单 ?(2019)
  2010s剧集(提名)
[quote]Video #1
ID                                       : 1
ID in the original source medium         : 4113 (0x1011)
Format                                   : HEVC
Format/Info                              : High Efficiency Video Coding
Format profile                           : Main [email protected]@High
HDR format                               : SMPTE ST 2086, HDR10 compatible
Codec ID                                 : V_MPEGH/ISO/HEVC
Duration                                 : 1 h 5 min
Bit rate                                 : 59.2 Mb/s
Width                                    : 3 840 pixels
Height                                   : 2 160 pixels
Display aspect ratio                     : 16:9
Frame rate mode                          : Constant
Frame rate                               : 23.976 (24000/1001/189150) FPS
Color space                              : YUV
Chroma subsampling                       : 4:2:0 (Type 2)
Bit depth                                : 10 bits
Bits/(Pixel*Frame)                       : 0.298
Stream size                              : 27.0 GiB (75%)
Title                                    : Game.of.Thrones.S04E10.The.Children.2160p.BluRay.REMUX.HEVC.DTS-HD.MA.TrueHD.7.1.Atmos-FGT
Language                                 : English
Default                                  : Yes
Forced                                   : No
Color range                              : Limited
Color primaries                          : BT.2020
Transfer characteristics                 : PQ
Matrix coefficients                      : BT.2020 non-constant
Mastering display color primaries        : BT.2020
Mastering display luminance              : min: 0.0020 cd/m2, max: 1000 cd/m2
Original source medium                   : Blu-ray

Video #2
ID                                       : 2
ID in the original source medium         : 4117 (0x1015)
Format                                   : HEVC
Format/Info                              : High Efficiency Video Coding
Format profile                           : Main [email protected]@High
HDR format                               : SMPTE ST 2086, HDR10 compatible
Codec ID                                 : V_MPEGH/ISO/HEVC
Duration                                 : 1 h 5 min
Bit rate                                 : 3 978 kb/s
Width                                    : 1 920 pixels
Height                                   : 1 080 pixels
Display aspect ratio                     : 16:9
Frame rate mode                          : Constant
Frame rate                               : 23.976 (24000/1001/189150) FPS
Color space                              : YUV
Chroma subsampling                       : 4:2:0 (Type 2)
Bit depth                                : 10 bits
Bits/(Pixel*Frame)                       : 0.080
Stream size                              : 1.82 GiB (5%)
Title                                    : Game.of.Thrones.S04E10.The.Children.2160p.BluRay.REMUX.HEVC.DTS-HD.MA.TrueHD.7.1.Atmos-FGT
Default                                  : No
Forced                                   : No
Color range                              : Limited
Color primaries                          : BT.2020
Transfer characteristics                 : PQ
Matrix coefficients                      : BT.2020 non-constant
Mastering display color primaries        : BT.2020
Mastering display luminance              : min: 0.0020 cd/m2, max: 1000 cd/m2
Original source medium                   : Blu-ray

Audio #1
ID                                       : 3
ID in the original source medium         : 4353 (0x1101)
Format                                   : MLP FBA 16-ch
Format/Info                              : Meridian Lossless Packing FBA with 16-channel presentation
Commercial name                          : Dolby TrueHD with Dolby Atmos
Codec ID                                 : A_TRUEHD
Duration                                 : 1 h 5 min
Bit rate mode                            : Variable
Bit rate                                 : 4 278 kb/s
Maximum bit rate                         : 8 124 kb/s
Channel(s)                               : 8 channels
Channel layout                           : L R C LFE Ls Rs Lb Rb
Sampling rate                            : 48.0 kHz
Frame rate                               : 1 200.000 FPS (40 SPF)
Compression mode                         : Lossless
Stream size                              : 1.95 GiB (5%)
Title                                    : Game.of.Thrones.S04E10.The.Children.2160p.BluRay.REMUX.HEVC.DTS-HD.MA.TrueHD.7.1.Atmos-FGT
Language                                 : English
Default                                  : Yes
Forced                                   : No
Original source medium                   : Blu-ray
Number of dynamic objects                : 11
Bed channel count                        : 1 channel
Bed channel configuration                : LFE

Audio #2
ID                                       : 4
Format                                   : DTS XLL
Format/Info                              : Digital Theater Systems
Commercial name                          : DTS-HD Master Audio
Codec ID                                 : A_DTS
Duration                                 : 1 h 5 min
Bit rate mode                            : Variable
Bit rate                                 : 3 538 kb/s
Channel(s)                               : 8 channels
Channel layout                           : C L R LFE Lb Rb Lss Rss
Sampling rate                            : 48.0 kHz
Frame rate                               : 93.750 FPS (512 SPF)
Bit depth                                : 24 bits
Compression mode                         : Lossless
Stream size                              : 1.62 GiB (4%)
Title                                    : Game.of.Thrones.S04E10.The.Children.2160p.BluRay.REMUX.HEVC.DTS-HD.MA.TrueHD.7.1.Atmos-FGT
Language                                 : English
Default                                  : No
Forced                                   : No

Audio #3
ID                                       : 5
ID in the original source medium         : 4353 (0x1101)
Format                                   : AC-3
Format/Info                              : Audio Coding 3
Commercial name                          : Dolby Digital
Codec ID                                 : A_AC3
Duration                                 : 1 h 5 min
Bit rate mode                            : Constant
Bit rate                                 : 640 kb/s
Channel(s)                               : 6 channels
Channel layout                           : L R C LFE Ls Rs
Sampling rate                            : 48.0 kHz
Frame rate                               : 31.250 FPS (1536 SPF)
Compression mode                         : Lossy
Stream size                              : 299 MiB (1%)
Title                                    : Game.of.Thrones.S04E10.The.Children.2160p.BluRay.REMUX.HEVC.DTS-HD.MA.TrueHD.7.1.Atmos-FGT
Language                                 : English
Service kind                             : Complete Main
Default                                  : No
Forced                                   : No
Original source medium                   : Blu-ray

Audio #4
ID                                       : 6
ID in the original source medium         : 4354 (0x1102)
Format                                   : AC-3
Format/Info                              : Audio Coding 3
Commercial name                          : Dolby Digital
Codec ID                                 : A_AC3
Duration                                 : 1 h 5 min
Bit rate mode                            : Constant
Bit rate                                 : 448 kb/s
Channel(s)                               : 6 channels
Channel layout                           : L R C LFE Ls Rs
Sampling rate                            : 48.0 kHz
Frame rate                               : 31.250 FPS (1536 SPF)
Compression mode                         : Lossy
Delay relative to video                  : 2 s 2 ms
Stream size                              : 209 MiB (1%)
Title                                    : Game.of.Thrones.S04E10.The.Children.2160p.BluRay.REMUX.HEVC.DTS-HD.MA.TrueHD.7.1.Atmos-FGT
Language                                 : French
Service kind                             : Complete Main
Default                                  : No
Forced                                   : No
Original source medium                   : Blu-ray

Audio #5
ID                                       : 7
ID in the original source medium         : 4355 (0x1103)
Format                                   : AC-3
Format/Info                              : Audio Coding 3
Commercial name                          : Dolby Digital
Codec ID                                 : A_AC3
Duration                                 : 1 h 5 min
Bit rate mode                            : Constant
Bit rate                                 : 256 kb/s
Channel(s)                               : 2 channels
Channel layout                           : L R
Sampling rate                            : 48.0 kHz
Frame rate                               : 31.250 FPS (1536 SPF)
Compression mode                         : Lossy
Delay relative to video                  : 2 s 2 ms
Stream size                              : 120 MiB (0%)
Title                                    : Game.of.Thrones.S04E10.The.Children.2160p.BluRay.REMUX.HEVC.DTS-HD.MA.TrueHD.7.1.Atmos-FGT
Language                                 : Spanish
Service kind                             : Complete Main
Default                                  : No
Forced                                   : No
Original source medium                   : Blu-ray

Audio #6
ID                                       : 8
ID in the original source medium         : 4356 (0x1104)
Format                                   : AC-3
Format/Info                              : Audio Coding 3
Commercial name                          : Dolby Digital
Codec ID                                 : A_AC3
Duration                                 : 1 h 5 min
Bit rate mode                            : Constant
Bit rate                                 : 448 kb/s
Channel(s)                               : 6 channels
Channel layout                           : L R C LFE Ls Rs
Sampling rate                            : 48.0 kHz
Frame rate                               : 31.250 FPS (1536 SPF)
Compression mode                         : Lossy
Delay relative to video                  : 2 s 2 ms
Stream size                              : 209 MiB (1%)
Title                                    : Game.of.Thrones.S04E10.The.Children.2160p.BluRay.REMUX.HEVC.DTS-HD.MA.TrueHD.7.1.Atmos-FGT
Language                                 : Spanish
Service kind                             : Complete Main
Default                                  : No
Forced                                   : No
Original source medium                   : Blu-ray

Audio #7
ID                                       : 9
ID in the original source medium         : 4357 (0x1105)
Format                                   : AC-3
Format/Info                              : Audio Coding 3
Commercial name                          : Dolby Digital
Codec ID                                 : A_AC3
Duration                                 : 1 h 5 min
Bit rate mode                            : Constant
Bit rate                                 : 448 kb/s
Channel(s)                               : 6 channels
Channel layout                           : L R C LFE Ls Rs
Sampling rate                            : 48.0 kHz
Frame rate                               : 31.250 FPS (1536 SPF)
Compression mode                         : Lossy
Delay relative to video                  : 2 s 2 ms
Stream size                              : 209 MiB (1%)
Title                                    : Game.of.Thrones.S04E10.The.Children.2160p.BluRay.REMUX.HEVC.DTS-HD.MA.TrueHD.7.1.Atmos-FGT
Language                                 : German
Service kind                             : Complete Main
Default                                  : No
Forced                                   : No
Original source medium                   : Blu-ray

Audio #8
ID                                       : 10
ID in the original source medium         : 4358 (0x1106)
Format                                   : AC-3
Format/Info                              : Audio Coding 3
Commercial name                          : Dolby Digital
Codec ID                                 : A_AC3
Duration                                 : 1 h 5 min
Bit rate mode                            : Constant
Bit rate                                 : 448 kb/s
Channel(s)                               : 6 channels
Channel layout                           : L R C LFE Ls Rs
Sampling rate                            : 48.0 kHz
Frame rate                               : 31.250 FPS (1536 SPF)
Compression mode                         : Lossy
Delay relative to video                  : 2 s 2 ms
Stream size                              : 209 MiB (1%)
Title                                    : Game.of.Thrones.S04E10.The.Children.2160p.BluRay.REMUX.HEVC.DTS-HD.MA.TrueHD.7.1.Atmos-FGT
Language                                 : Italian
Service kind                             : Complete Main
Default                                  : No
Forced                                   : No
Original source medium                   : Blu-ray

Audio #9
ID                                       : 11
ID in the original source medium         : 4359 (0x1107)
Format                                   : DTS
Format/Info                              : Digital Theater Systems
Codec ID                                 : A_DTS
Duration                                 : 1 h 5 min
Bit rate mode                            : Constant
Bit rate                                 : 768 kb/s
Channel(s)                               : 2 channels
Channel layout                           : Lt Rt
Sampling rate                            : 48.0 kHz
Frame rate                               : 93.750 FPS (512 SPF)
Bit depth                                : 24 bits
Compression mode                         : Lossy
Delay relative to video                  : 2 s 2 ms
Stream size                              : 359 MiB (1%)
Title                                    : Game.of.Thrones.S04E10.The.Children.2160p.BluRay.REMUX.HEVC.DTS-HD.MA.TrueHD.7.1.Atmos-FGT
Language                                 : Portuguese
Default                                  : No
Forced                                   : No
Original source medium                   : Blu-ray

Audio #10
ID                                       : 12
ID in the original source medium         : 4360 (0x1108)
Format                                   : DTS
Format/Info                              : Digital Theater Systems
Codec ID                                 : A_DTS
Duration                                 : 1 h 5 min
Bit rate mode                            : Constant
Bit rate                                 : 768 kb/s
Channel(s)                               : 2 channels
Channel layout                           : Lt Rt
Sampling rate                            : 48.0 kHz
Frame rate                               : 93.750 FPS (512 SPF)
Bit depth                                : 24 bits
Compression mode                         : Lossy
Delay relative to video                  : 2 s 2 ms
Stream size                              : 359 MiB (1%)
Title                                    : Game.of.Thrones.S04E10.The.Children.2160p.BluRay.REMUX.HEVC.DTS-HD.MA.TrueHD.7.1.Atmos-FGT
Language                                 : Czech
Default                                  : No
Forced                                   : No
Original source medium                   : Blu-ray

Audio #11
ID                                       : 13
ID in the original source medium         : 4361 (0x1109)
Format                                   : DTS
Format/Info                              : Digital Theater Systems
Codec ID                                 : A_DTS
Duration                                 : 1 h 5 min
Bit rate mode                            : Constant
Bit rate                                 : 768 kb/s
Channel(s)                               : 2 channels
Channel layout                           : Lt Rt
Sampling rate                            : 48.0 kHz
Frame rate                               : 93.750 FPS (512 SPF)
Bit depth                                : 24 bits
Compression mode                         : Lossy
Delay relative to video                  : 2 s 2 ms
Stream size                              : 359 MiB (1%)
Title                                    : Game.of.Thrones.S04E10.The.Children.2160p.BluRay.REMUX.HEVC.DTS-HD.MA.TrueHD.7.1.Atmos-FGT
Language                                 : Hungarian
Default                                  : No
Forced                                   : No
Original source medium                   : Blu-ray

Audio #12
ID                                       : 14
ID in the original source medium         : 4362 (0x110A)
Format                                   : DTS
Format/Info                              : Digital Theater Systems
Codec ID                                 : A_DTS
Duration                                 : 1 h 5 min
Bit rate mode                            : Constant
Bit rate                                 : 768 kb/s
Channel(s)                               : 2 channels
Channel layout                           : Lt Rt
Sampling rate                            : 48.0 kHz
Frame rate                               : 93.750 FPS (512 SPF)
Bit depth                                : 24 bits
Compression mode                         : Lossy
Delay relative to video                  : 2 s 2 ms
Stream size                              : 359 MiB (1%)
Title                                    : Game.of.Thrones.S04E10.The.Children.2160p.BluRay.REMUX.HEVC.DTS-HD.MA.TrueHD.7.1.Atmos-FGT
Language                                 : Polish
Default                                  : No
Forced                                   : No
Original source medium                   : Blu-ray

Audio #13
ID                                       : 15
ID in the original source medium         : 4363 (0x110B)
Format                                   : DTS
Format/Info                              : Digital Theater Systems
Codec ID                                 : A_DTS
Duration                                 : 1 h 5 min
Bit rate mode                            : Constant
Bit rate                                 : 768 kb/s
Channel(s)                               : 6 channels
Channel layout                           : C L R Ls Rs LFE
Sampling rate                            : 48.0 kHz
Frame rate                               : 93.750 FPS (512 SPF)
Bit depth                                : 24 bits
Compression mode                         : Lossy
Delay relative to video                  : 2 s 2 ms
Stream size                              : 359 MiB (1%)
Title                                    : Game.of.Thrones.S04E10.The.Children.2160p.BluRay.REMUX.HEVC.DTS-HD.MA.TrueHD.7.1.Atmos-FGT
Language                                 : Russian
Default                                  : No
Forced                                   : No
Original source medium                   : Blu-ray

Audio #14
ID                                       : 16
ID in the original source medium         : 4364 (0x110C)
Format                                   : AC-3
Format/Info                              : Audio Coding 3
Commercial name                          : Dolby Digital
Codec ID                                 : A_AC3
Duration                                 : 1 h 5 min
Bit rate mode                            : Constant
Bit rate                                 : 448 kb/s
Channel(s)                               : 6 channels
Channel layout                           : L R C LFE Ls Rs
Sampling rate                            : 48.0 kHz
Frame rate                               : 31.250 FPS (1536 SPF)
Compression mode                         : Lossy
Delay relative to video                  : 2 s 2 ms
Stream size                              : 209 MiB (1%)
Title                                    : Game.of.Thrones.S04E10.The.Children.2160p.BluRay.REMUX.HEVC.DTS-HD.MA.TrueHD.7.1.Atmos-FGT
Language              &nbsp

回复

使用道具 举报

小黑屋|百度云资源论坛 |网站地图

本网站所有资源来自网络,如无意中侵犯了您的权益,请发邮件至 [email protected],立即清除相关链接

GMT+8, 2020-12-5 13:45 , Processed in 0.105978 second(s), 20 queries .

Powered by Discuz! X3.2

© 2001-2013 Comsenz Inc.

快速回复 返回顶部 返回列表