百度云资源论坛

 找回密码
 立即注册
搜索

[4K-原盘] 精疲力尽 Breathless.1960.FRENCH.2160p.BluRay.REMUX.HEVC.LPCM.2.0-FGT 39.72GB

[复制链接]
百度云资源 发表于 2020-11-12 09:27:32 | 显示全部楼层 |阅读模式
-->
帖子完整标题:精疲力尽 Breathless.1960.FRENCH.2160p.BluRay.REMUX.HEVC.LPCM.2.0-FGT 39.72GB




◎译  名 精疲力尽/Breathless/断了气(港/台)/欲海惊魂(港)/穷途末路/筋疲力尽/精疲力竭
◎片  名 à bout de souffle
◎年  代 1960
◎产  地 法国
◎类  别 剧情 / 爱情 / 犯罪
◎语  言 法语,英语
◎上映日期 1960-03-16(法国)
◎IMDb评分  7.8/10 from 71969 users
◎  https://www.imdb.com/title/tt0053472/
◎豆瓣评分 8.4/10 from 36536 users
◎ 
◎片  长 90 分钟
◎导  演 让-吕克·戈达尔 Jean-Luc Godard
◎编  剧 弗朗索瓦·特吕弗 Fran?ois Truffaut / 让-吕克·戈达尔 Jean-Luc Godard / 克洛德·夏布洛尔 Claude Chabrol
◎主  演 珍·茜宝 Jean Seberg
       让-保罗·贝尔蒙多 Jean-Paul Belmondo
       达尼埃尔·布朗热 Daniel Boulanger
       亨利-雅克·于埃 Henri-Jacques Huet
       罗杰·哈宁 Roger Hanin
       范都德 Van Doude
       克洛德·芒萨尔 Claude Mansard
       莉莲·德莱弗斯 Liliane Dreyfus
       让-皮埃尔·梅尔维尔 Jean-Pierre Melville
       让-吕克·戈达尔 Jean-Luc Godard
       里夏尔·巴尔杜奇 Richard Balducci
       安德烈·S·拉巴尔特 André S. Labarthe
       弗朗索瓦·莫瑞尔 Fran?ois Moreuil
       Jacques Lourcelles
       热拉尔·布拉什 Gérard Brach
       菲利普·德·布罗卡 Philippe de Broca
       José Bénazéraf
       让·杜歇 Jean Douchet
       雷蒙德·亨特利 Raymond Huntley
       Louiguy
       Guido Orlando
       让-路易·里夏尔 Jean-Louis Richard
       Jacques Siclier

◎标  签 法国 | 新浪潮 | 1960 | 经典 | 爱情 | 黑白 | 犯罪 | 剧情

◎简  介

  本片和特吕弗的《四百击》同被誉为法国电影新浪潮的开山之作。
  
  身无分文的街头混混米歇尔(让-保罗?贝尔蒙多)从马赛偷了一辆小汽车,驶往巴黎的路上,他因超速行驶被警察逮住,为了脱身,他开枪打死一名警察,来到巴黎后,他躲进当记者的女友帕特丽夏(Jean Seberg)处(躲避警方的通缉之外,他还想方设法讨回一笔卖车赚来的钱)。帕特丽夏去报社时,遇到警长,对方要她一有米歇尔的消息就打电话相告。对米歇尔,帕特丽夏心态复杂,一面深深为他对一切都无所谓的劲儿着迷,一面却嫌弃他太吊儿郎当。

◎获奖情况

  第10届柏林国际电影节 ?(1960)
  金熊奖最佳影片(提名) 让-吕克·戈达尔
  银熊奖最佳导演 让-吕克·戈达尔
Video #1
ID                                       : 1
ID in the original source medium         : 4113 (0x1011)
Format                                   : HEVC
Format/Info                              : High Efficiency Video Coding
Format profile                           : Main [email protected]@High
HDR format                               : SMPTE ST 2086, HDR10 compatible
Codec ID                                 : V_MPEGH/ISO/HEVC
Duration                                 : 1 h 30 min
Bit rate                                 : 54.2 Mb/s
Width                                    : 3 840 pixels
Height                                   : 2 160 pixels
Display aspect ratio                     : 16:9
Frame rate mode                          : Constant
Frame rate                               : 24.000 FPS
Color space                              : YUV
Chroma subsampling                       : 4:2:0 (Type 2)
Bit depth                                : 10 bits
Bits/(Pixel*Frame)                       : 0.272
Stream size                              : 34.1 GiB (86%)
Title                                    : Breathless.1960.FRENCH.2160p.BluRay.REMUX.HEVC.LPCM.2.0-FGT
Language                                 : English
Default                                  : Yes
Forced                                   : No
Color range                              : Limited
Color primaries                          : BT.2020
Transfer characteristics                 : PQ
Matrix coefficients                      : BT.2020 non-constant
Mastering display color primaries        : Display P3
Mastering display luminance              : min: 0.0001 cd/m2, max: 1000 cd/m2
Maximum Content Light Level              : 1000 cd/m2
Maximum Frame-Average Light Level        : 141 cd/m2
Original source medium                   : Blu-ray


Video #2
ID                                       : 2
Format                                   : HEVC
Format/Info                              : High Efficiency Video Coding
Format profile                           : Main [email protected]@High
HDR format                               : SMPTE ST 2086, HDR10 compatible
Codec ID                                 : V_MPEGH/ISO/HEVC
Duration                                 : 1 h 30 min
Bit rate                                 : 4 196 kb/s
Width                                    : 1 920 pixels
Height                                   : 1 080 pixels
Display aspect ratio                     : 16:9
Frame rate mode                          : Constant
Frame rate                               : 24.000 FPS
Color space                              : YUV
Chroma subsampling                       : 4:2:0 (Type 2)
Bit depth                                : 10 bits
Bits/(Pixel*Frame)                       : 0.084
Stream size                              : 2.65 GiB (7%)
Title                                    : Breathless.1960.FRENCH.2160p.BluRay.REMUX.HEVC.LPCM.2.0-FGT
Default                                  : No
Forced                                   : No
Color range                              : Limited
Color primaries                          : BT.2020
Transfer characteristics                 : PQ
Matrix coefficients                      : BT.2020 non-constant
Mastering display color primaries        : BT.2020
Mastering display luminance              : min: 0.0001 cd/m2, max: 1000 cd/m2

Audio #1
ID                                       : 3
ID in the original source medium         : 4352 (0x1100)
Format                                   : PCM
Format settings                          : Little / Signed
Codec ID                                 : A_PCM/INT/LIT
Duration                                 : 1 h 30 min
Bit rate mode                            : Constant
Bit rate                                 : 2 304 kb/s
Channel(s)                               : 2 channels
Sampling rate                            : 48.0 kHz
Frame rate                               : 30.000 FPS (1600 SPF)
Bit depth                                : 24 bits
Stream size                              : 1.45 GiB (4%)
Title                                    : Breathless.1960.FRENCH.2160p.BluRay.REMUX.HEVC.LPCM.2.0-FGT
Language                                 : French
Default                                  : Yes
Forced                                   : No
Original source medium                   : Blu-ray

Audio #2
ID                                       : 4
ID in the original source medium         : 4353 (0x1101)
Format                                   : PCM
Format settings                          : Little / Signed
Codec ID                                 : A_PCM/INT/LIT
Duration                                 : 1 h 30 min
Bit rate mode                            : Constant
Bit rate                                 : 2 304 kb/s
Channel(s)                               : 2 channels
Sampling rate                            : 48.0 kHz
Frame rate                               : 30.000 FPS (1600 SPF)
Bit depth                                : 24 bits
Stream size                              : 1.45 GiB (4%)
Title                                    : Breathless.1960.FRENCH.2160p.BluRay.REMUX.HEVC.LPCM.2.0-FGT
Language                                 : German
Default                                  : No
Forced                                   : No
Original source medium                   : Blu-ray

Text #1
ID                                       : 5
Format                                   : UTF-8
Codec ID                                 : S_TEXT/UTF8
Codec ID/Info                            : UTF-8 Plain Text
Duration                                 : 1 h 29 min
Bit rate                                 : 42 b/s
Count of elements                        : 762
Stream size                              : 28.0 KiB (0%)
Title                                    : English-SRT
Language                                 : English
Default                                  : Yes
Forced                                   : Yes

Text #2
ID                                       : 6
ID in the original source medium         : 4768 (0x12A0)
Format                                   : PGS
Muxing mode                              : zlib
Codec ID                                 : S_HDMV/PGS
Codec ID/Info                            : Picture based subtitle format used on BDs/HD-DVDs
Duration                                 : 1 h 30 min
Bit rate                                 : 31.0 kb/s
Count of elements                        : 2704
Stream size                              : 20.0 MiB (0%)
Title                                    : French-PGS
Language                                 : French
Default                                  : No
Forced                                   : No
Original source medium                   : Blu-ray

Text #3
ID                                       : 7
ID in the original source medium         : 4769 (0x12A1)
Format                                   : PGS
Muxing mode                              : zlib
Codec ID                                 : S_HDMV/PGS
Codec ID/Info                            : Picture based subtitle format used on BDs/HD-DVDs
Duration                                 : 1 h 30 min
Bit rate                                 : 33.0 kb/s
Count of elements                        : 1998
Stream size                              : 21.3 MiB (0%)
Title                                    : German-PGS
Language                                 : German
Default                                  : No
Forced                                   : No
Original source medium                   : Blu-ray

Text #4
ID                                       : 8
ID in the original source medium         : 4770 (0x12A2)
Format                                   : PGS
Muxing mode                              : zlib
Codec ID                                 : S_HDMV/PGS
Codec ID/Info                            : Picture based subtitle format used on BDs/HD-DVDs
Duration                                 : 1 h 29 min
Bit rate                                 : 25.2 kb/s
Count of elements                        : 1526
Stream size                              : 16.2 MiB (0%)
Title                                    : English-PGS
Language                                 : English
Default                                  : No
Forced                                   : No
Original source medium                   : Blu-ray

Text #5
ID                                       : 9
ID in the original source medium         : 4771 (0x12A3)
Format                                   : PGS
Muxing mode                              : zlib
Codec ID                                 : S_HDMV/PGS
Codec ID/Info                            : Picture based subtitle format used on BDs/HD-DVDs
Duration                                 : 1 h 18 min
Bit rate                                 : 1 090 b/s
Count of elements                        : 62
Stream size                              : 624 KiB (0%)
Title                                    : French-FORCED-PGS
Language                                 : French
Default                                  : No
Forced                                   : No
Original source medium                   : Blu-ray

Text #6
ID                                       : 10
ID in the original source medium         : 4772 (0x12A4)
Format                                   : PGS
Muxing mode                              : zlib
Codec ID                                 : S_HDMV/PGS
Codec ID/Info                            : Picture based subtitle format used on BDs/HD-DVDs
Duration                                 : 1 h 30 min
Bit rate                                 : 506 b/s
Count of elements                        : 34
Stream size                              : 335 KiB (0%)
Title                                    : German-FORCED-PGS
Language                                 : German
Default                                  : No
Forced                                   : No
Original source medium                   : Blu-ray

Menu
00:00:00.000                             : en:Chapter 01
00:05:57.291                             : en:Chapter 02
00:10:03.291                             : en:Chapter 03
00:18:14.291                             : en:Chapter 04
00:26:27.291                             : en:Chapter 05
00:37:12.291                             : en:Chapter 06
00:52:52.291                             : en:Chapter 07
01:00:15.291                             : en:Chapter 08
01:05:05.291                             : en:Chapter 09
01:12:08.291                             : en:Chapter 10
01:18:50.708                             : en:Chapter 11
01:23:01.708                             : en:Chapter 12




                                                                                                                                                                                                        
                                                                                                                                                                                                                                                                                                                                                                                                                                                                                                                                                                                                                                                                                                                                                                                                                                                        
e55f3b5fd8f488287fc36d551ee4c4b0.zip (99.98 KB, 下载次数: 0)

回复

使用道具 举报

小黑屋|百度云资源论坛 |网站地图

本网站所有资源来自网络,如无意中侵犯了您的权益,请发邮件至 [email protected],立即清除相关链接

GMT+8, 2020-12-5 13:04 , Processed in 0.107662 second(s), 23 queries .

Powered by Discuz! X3.2

© 2001-2013 Comsenz Inc.

快速回复 返回顶部 返回列表