百度云资源论坛

 找回密码
 立即注册
搜索

[BD-4K] 梦之安魂曲/噩梦挽歌 Requiem.for.a.Dream.2000.2160p.BluRay.x264.8bit....

[复制链接]
百度云资源 发表于 2020-11-11 12:33:21 | 显示全部楼层 |阅读模式
帖子完整标题:梦之安魂曲/噩梦挽歌 Requiem.for.a.Dream.2000.2160p.BluRay.x264.8bit.SDR.DTS-HD.MA.TrueHD.7.1.Atmos-SWTYBLZ 59.03GB


[/url]

◎译  名 梦之安魂曲/噩梦挽歌(台)/梦的挽歌/迷上瘾(港)
◎片  名 Requiem for a Dream
◎年  代 2000
◎产  地 美国
◎类  别 剧情
◎语  言 英语
◎上映日期 2000-05-14(戛纳电影节) / 2000-12-15(美国)
◎IMDb评分  8.3/10 from 755688 users
◎  
◎豆瓣评分 8.7/10 from 167506 users
◎ 
◎片  长 102分钟
◎导  演 达伦·阿伦诺夫斯基 Darren Aronofsky
◎编  剧 小胡伯特·塞尔比 Hubert Selby Jr. / 达伦·阿伦诺夫斯基 Darren Aronofsky
◎主  演 艾伦·伯斯汀 Ellen Burstyn
       杰瑞德·莱托 Jared Leto
       詹妮弗·康纳利 Jennifer Connelly
       马龙·韦恩斯 Marlon Wayans
       克里斯托弗·麦克唐纳 Christopher McDonald
       露易丝·拉塞尔 Louise Lasser
       玛西娅·让·库尔茨 Marcia Jean Kurtz
       珍妮特·萨诺 Janet Sarno
       苏珊妮·谢泼德 Suzanne Shepherd
       夏洛特·阿罗诺夫斯基 Charlotte Aronofsky
       马克·马戈利斯 Mark Margolis
       迈克尔·卡切克 Michael Kaycheck
       杰克·奥康耐 Jack O'Connell
       斯科特·富兰克林 Scott Franklin
       亚伯拉罕·阿罗诺夫斯基 Abraham Aronofsky
       欧嘉·梅雷迪斯 Olga Merediz
       本·申克曼 Ben Shenkman
       凯斯·大卫 Keith David
       迪伦·贝克 Dylan Baker
       肖恩·奥哈根 Shaun O'Hagan
       比尔·布尔 Bill Buell
       吉米·雷·威克斯 Jimmie Ray Weeks
       斯坦利·B·赫尔曼 Stanley B. Herman
       达伦·阿伦诺夫斯基 Darren Aronofsky
       肖恩·格莱特 Sean Gullette

◎标  签 黑色 | 毒品 | 美国 | 剧情 | 人性 | 美国电影 | Cult | 2000

◎简  介

  哈瑞(杰瑞德·莱托 Jared Leto 饰)和玛丽安(詹妮弗·康纳利 Jennifer Connelly 饰)彼此相爱,梦想着开个服装店,梦想着有个美好的明天。然而他们都离不开毒品,并想着以销毒赚得第一桶金。哈瑞的母亲是个彻底的电视迷,最大的梦想是上电视,为此不顾年迈吞食减肥药。由于药品里的毒品成分,她渐渐上了瘾。哈瑞的朋友狄龙(马龙·韦恩斯 Marlon Wayans 饰)同样是个瘾君子,为了挣大钱加入了黑社会。为了梦想,他们努力着,却一步步深陷毒品难以自拔。 哈瑞的胳膊因注射毒品感染而被割去;玛丽安为了毒品出卖肉体和自尊;哈瑞的母亲最终住进了精神病院受尽折磨;狄龙锒铛入狱。当视线变得模糊,梦在遥远处呼唤,迷失的人该以怎样的姿态安抚自己的灵魂。

◎获奖情况

  第73届奥斯卡金像奖 ?(2001)
  最佳女主角(提名) 艾伦·伯斯汀
  
  第58届金球奖 ?(2001)
  电影类剧情片最佳女主角(提名) 艾伦·伯斯汀
  
  第1届美国电影学会奖 ?(2000)
  年度佳片
Video
ID                                       : 1
Format                                   : AVC
Format/Info                              : Advanced Video Codec
Format profile                           :
Format settings                          : CABAC / 5 Ref Frames
Format settings, CABAC                   : Yes
Format settings, Reference frames        : 5 frames
Codec ID                                 : V_MPEG4/ISO/AVC
Duration                                 : 1 h 41 min
Bit rate                                 : 74.1 Mb/s
Width                                    : 3 840 pixels
Height                                   : 2 076 pixels
Display aspect ratio                     : 1.85:1
Frame rate mode                          : Constant
Frame rate                               : 23.976 (24000/1001/189150) FPS
Color space                              : YUV
Chroma subsampling                       : 4:2:0
Bit depth                                : 8 bits
Scan type                                : Progressive
Bits/(Pixel*Frame)                       : 0.388
Stream size                              : 52.6 GiB (90%)
Title                                    : Requiem.for.a.Dream.2000.2160p.BluRay.x264.8bit.SDR.DTS-HD.MA.TrueHD.7.1.Atmos-SWTYBLZ
Writing library                          : x264 core 157 r2935 545de2f
Encoding settings                        : cabac=1 / ref=5 / deblock=1:-1:-1 / analyse=0x3:0x113 / me=umh / subme=10 / psy=1 / psy_rd=1.00:0.15 / mixed_ref=1 / me_range=48 / chroma_me=1 / trellis=2 / 8x8dct=1 / cqm=0 / deadzone=21,11 / fast_pskip=1 / chroma_qp_offset=-3 / threads=48 / lookahead_threads=4 / sliced_threads=0 / nr=0 / decimate=0 / interlaced=0 / bluray_compat=0 / constrained_intra=0 / bframes=3 / b_pyramid=2 / b_adapt=2 / b_bias=0 / direct=3 / weightb=1 / open_gop=0 / weightp=2 / keyint=250 / keyint_min=23 / scenecut=40 / intra_refresh=0 / rc_lookahead=50 / rc=crf / mbtree=1 / crf=18.0 / qcomp=0.60 / qpmin=0 / qpmax=69 / qpstep=4 / ip_ratio=1.40 / aq=1:1.00
Default                                  : Yes
Forced                                   : No

Audio #1
ID                                       : 2
Format                                   : MLP FBA 16-ch
Format/Info                              : Meridian Lossless Packing FBA with 16-channel presentation
Commercial name                          : Dolby TrueHD with Dolby Atmos
Codec ID                                 : A_TRUEHD
Duration                                 : 1 h 41 min
Bit rate mode                            : Variable
Bit rate                                 : 3 831 kb/s
Maximum bit rate                         : 6 300 kb/s
Channel(s)                               : 8 channels
Channel layout                           : L R C LFE Ls Rs Lb Rb
Sampling rate                            : 48.0 kHz
Frame rate                               : 1 200.000 FPS (40 SPF)
Compression mode                         : Lossless
Stream size                              : 2.72 GiB (5%)
Title                                    : Requiem.for.a.Dream.2000.2160p.BluRay.x264.8bit.SDR.DTS-HD.MA.TrueHD.7.1.Atmos-SWTYBLZ
Language                                 : English
Default                                  : Yes
Forced                                   : No
Number of dynamic objects                : 15
Bed channel count                        : 1 channel
Bed channel configuration                : LFE

Audio #2
ID                                       : 3
Format                                   : DTS XLL
Format/Info                              : Digital Theater Systems
Commercial name                          : DTS-HD Master Audio
Codec ID                                 : A_DTS
Duration                                 : 1 h 41 min
Bit rate mode                            : Variable
Bit rate                                 : 4 091 kb/s
Channel(s)                               : 8 channels
Channel layout                           : C L R LFE Lb Rb Lss Rss
Sampling rate                            : 48.0 kHz
Frame rate                               : 93.750 FPS (512 SPF)
Bit depth                                : 24 bits
Compression mode                         : Lossless
Stream size                              : 2.90 GiB (5%)
Title                                    : Requiem.for.a.Dream.2000.2160p.BluRay.x264.8bit.SDR.DTS-HD.MA.TrueHD.7.1.Atmos-SWTYBLZ
Language                                 : English
Default                                  : No
Forced                                   : No

Audio #3
ID                                       : 4
Format                                   : AC-3
Format/Info                              : Audio Coding 3
Commercial name                          : Dolby Digital
Codec ID                                 : A_AC3
Duration                                 : 1 h 41 min
Bit rate mode                            : Constant
Bit rate                                 : 640 kb/s
Channel(s)                               : 6 channels
Channel layout                           : L R C LFE Ls Rs
Sampling rate                            : 48.0 kHz
Frame rate                               : 31.250 FPS (1536 SPF)
Compression mode                         : Lossy
Stream size                              : 465 MiB (1%)
Title                                    : Requiem.for.a.Dream.2000.2160p.BluRay.x264.8bit.SDR.DTS-HD.MA.TrueHD.7.1.Atmos-SWTYBLZ
Language                                 : English
Service kind                             : Complete Main
Default                                  : No
Forced                                   : No

Text #1
ID                                       : 5
Format                                   : UTF-8
Codec ID                                 : S_TEXT/UTF8
Codec ID/Info                            : UTF-8 Plain Text
Duration                                 : 1 h 36 min
Bit rate                                 : 51 b/s
Count of elements                        : 1122
Stream size                              : 36.3 KiB (0%)
Title                                    : English-SRT
Language                                 : English
Default                                  : Yes
Forced                                   : No

Text #2
ID                                       : 6
Format                                   : PGS
Muxing mode                              : zlib
Codec ID                                 : S_HDMV/PGS
Codec ID/Info                            : Picture based subtitle format used on BDs/HD-DVDs
Duration                                 : 1 h 36 min
Bit rate                                 : 30.4 kb/s
Count of elements                        : 2286
Stream size                              : 21.0 MiB (0%)
Title                                    : English-PGS
Language                                 : English
Default                                  : No
Forced                                   : No

Text #3
ID                                       : 7
Format                                   : PGS
Muxing mode                              : zlib
Codec ID                                 : S_HDMV/PGS
Codec ID/Info                            : Picture based subtitle format used on BDs/HD-DVDs
Duration                                 : 1 h 36 min
Bit rate                                 : 36.0 kb/s
Count of elements                        : 2742
Stream size                              : 24.9 MiB (0%)
Title                                    : English-SDH-PGS
Language                                 : English
Default                                  : No
Forced                                   : No

Text #4
ID                                       : 8
Format                                   : PGS
Muxing mode                              : zlib
Codec ID                                 : S_HDMV/PGS
Codec ID/Info                            : Picture based subtitle format used on BDs/HD-DVDs
Duration                                 : 1 h 36 min
Bit rate                                 : 37.8 kb/s
Count of elements                        : 1566
Stream size                              : 26.1 MiB (0%)
Title                                    : German-PGS
Language                                 : German
Default                                  : No
Forced                                   : No

Text #5
ID                                       : 9
Format                                   : PGS
Muxing mode                              : zlib
Codec ID                                 : S_HDMV/PGS
Codec ID/Info                            : Picture based subtitle format used on BDs/HD-DVDs
Duration                                 : 1 h 36 min
Bit rate                                 : 18.7 kb/s
Count of elements                        : 1838
Stream size                              : 12.9 MiB (0%)
Title                                    : Korean-PGS
Language                                 : Korean
Default                                  : No
Forced                                   : No

Text #6
ID                                       : 10
Format                                   : PGS
Muxing mode                              : zlib
Codec ID                                 : S_HDMV/PGS
Codec ID/Info                            : Picture based subtitle format used on BDs/HD-DVDs
Duration                                 : 1 h 40 min
Bit rate                                 : 25.9 kb/s
Count of elements                        : 2346
Stream size                              : 18.6 MiB (0%)
Title                                    : Spanish-PGS
Language                                 : Spanish
Default                                  : No
Forced                                   : No

Menu
00:00:00.000                             : en:Tuning Up
00:05:30.705                             : enreams
00:09:06.629                             : en:The Winner
00:14:00.882                             : en:Juice
00:19:01.057                             : en:Thinking Thin
00:23:35.039                             : enynamite
00:27:33.318                             : en:A Date
00:29:46.952                             : en
00:32:46.965                             : en:Sweet Alice
00:37:16.901                             : en:Hope
00:49:24.211                             : en:Hunger Cries
00:56:24.631                             : en:Apart
01:06:05.420                             : en:Fury
01:13:24.775                             : en:A Whack
01:21:01.231                             : en:False Hope
01:29:17.561                             : en:The Requiem
[/url][/url][/url]



                                                                                                                                                                                                        
                                                                                                                                                                                                                                                                                                                                                                                                                                                                                                                                                                                                                                                                                                                                                                                                                                                         2242b827082c1e32d0e816d93b2a3836.zip (149.18 KB, 下载次数: 0)

回复

使用道具 举报

小黑屋|百度云资源论坛 |网站地图

本网站所有资源来自网络,如无意中侵犯了您的权益,请发邮件至 [email protected],立即清除相关链接

GMT+8, 2020-12-6 09:07 , Processed in 0.100959 second(s), 23 queries .

Powered by Discuz! X3.2

© 2001-2013 Comsenz Inc.

快速回复 返回顶部 返回列表