百度云资源论坛

 找回密码
 立即注册
搜索

[BD-4K] 花木兰/木兰传说 Mulan.2020.HDR.2160p.WEB.h265-FREEHK 13.43GB

[复制链接]
帖子完整标题:花木兰/木兰传说 Mulan.2020.HDR.2160p.WEB.h265-FREEHK 13.43GB




◎译  名 花木兰/木兰传说/花木兰真人版/迪士尼真人版花木兰
◎片  名 Mulan
◎年  代 2020
◎产  地 美国,中国大陆
◎类  别 剧情 / 动作 / 奇幻 / 冒险 / 古装
◎语  言 英语,汉语普通话
◎上映日期 2020-09-04(美国网络) / 2020-09-11(中国大陆)
◎片  长 115分钟
◎导  演 妮琪·卡罗 Niki Caro
◎编  剧 劳伦·希内克 Lauren Hynek / 里克·杰法 Rick Jaffa / 伊丽莎白·马丁 Elizabeth Martin / 阿曼达·斯尔沃 Amanda Silver
◎主  演 刘亦菲 Yifei Liu
       甄子丹 Donnie Yen
       巩俐 Li Gong
       李连杰 Jet Li
       李截 Jason Scott Lee
       安柚鑫 Yoson An
       马泰 Tzi Ma
       赵家玲 Rosalind Chao
       郑佩佩 Pei-pei Cheng
       温明娜 Ming-Na Wen
       曾晓童 Xana Tang
       袁文忠 Ron Yuan
       唐辰瀛 Chen Tang
       道阿·茂阿 Doua Moua
       黄谷悦 Jimmy Wong
       尼尔森·李 Nelson Lee
       李勋 Hoon Lee
       饶雪晶 Crystal Rao
       袁之正 Roger Yuan
       仁成外桥 Jen Sung Outerbridge
       加里·扬 Gary Young
       欧文·邝 Owen Kwong
       乌特卡什·安邦德卡尔 Utkarsh Ambudkar
       钱姆·艾希勒珀拉 Chum Ehelepola
       大卫·T·林 David T·Lim
       詹森·郑 Jenson Cheng
       Jun Yu

◎标  签 花木兰 | 刘亦菲 | 迪士尼 | 真人版 | Disney | 美国 | 古装 | 电影

◎简  介

  迪士尼影业荣誉出品《花木兰》由备受赞誉的电影导演妮基·卡罗执导,将中国传奇战士的史诗故事全新呈现。影片讲述了一位无所畏惧的年轻女子义无反顾为家国而战,成为中国史上最著名的伟大勇士之一。当皇帝下令境内每个家庭必须有一位男丁应召出征,抵御北方来犯者入侵,出身军戎之家的长女花木兰,挺身而出,替病痛缠身的父亲应征入伍。她女扮男装化名“花军”,一路历经磨练,驾驭自己内心的力量,激发真正的潜能。通过这段传奇历程,她将成为一名光荣的勇士,不仅赢得国家的认可,更博得父亲的骄傲。

◎获奖情况

  第6届豆瓣电影年度榜单 ?(2019)
  最值得期待的外语电影(提名)
Video
ID                                       : 1
Format                                   : HEVC
Format/Info                              : High Efficiency Video Coding
HDR format                               : SMPTE ST 2086, HDR10 compatible
Codec ID                                 : V_MPEGH/ISO/HEVC
Duration                                 : 1 h 55 min
Bit rate                                 : 15.8 Mb/s
Width                                    : 3 840 pixels
Height                                   : 2 160 pixels
Display aspect ratio                     : 16:9
Frame rate mode                          : Constant
Frame rate                               : 23.976 (24000/1001/189150) FPS
Color space                              : YUV
Chroma subsampling                       : 4:2:0
Bit depth                                : 10 bits
Bits/(Pixel*Frame)                       : 0.079
Stream size                              : 12.7 GiB (95%)
Language                                 : English
Default                                  : Yes
Forced                                   : No
Color range                              : Limited
Color primaries                          : BT.2020
Transfer characteristics                 : PQ
Matrix coefficients                      : BT.2020 non-constant
Mastering display color primaries        : Display P3
Mastering display luminance              : min: 0.0000 cd/m2, max: 1000 cd/m2

Audio
ID                                       : 2
Format                                   : E-AC-3 JOC
Format/Info                              : Enhanced AC-3 with Joint Object Coding
Commercial name                          : Dolby Digital Plus with Dolby Atmos
Codec ID                                 : A_EAC3
Duration                                 : 1 h 55 min
Bit rate mode                            : Constant
Bit rate                                 : 768 kb/s
Channel(s)                               : 6 channels
Channel layout                           : L R C LFE Ls Rs
Sampling rate                            : 48.0 kHz
Frame rate                               : 31.250 FPS (1536 SPF)
Compression mode                         : Lossy
Stream size                              : 633 MiB (5%)
Language                                 : English
Service kind                             : Complete Main
Default                                  : Yes
Forced                                   : No
Complexity index                         : 16
Number of dynamic objects                : 15
Bed channel count                        : 1 channel
Bed channel configuration                : LFE

Text #1
ID                                       : 3
Format                                   : UTF-8
Codec ID                                 : S_TEXT/UTF8
Codec ID/Info                            : UTF-8 Plain Text
Duration                                 : 1 h 50 min
Bit rate                                 : 36 b/s
Count of elements                        : 1150
Stream size                              : 29.5 KiB (0%)
Title                                    : English (SDH)
Language                                 : English
Default                                  : No
Forced                                   : No

Text #2
ID                                       : 4
Format                                   : UTF-8
Codec ID                                 : S_TEXT/UTF8
Codec ID/Info                            : UTF-8 Plain Text
Duration                                 : 1 h 54 min
Bit rate                                 : 26 b/s
Count of elements                        : 632
Stream size                              : 21.8 KiB (0%)
Title                                    : Dansk
Language                                 : Danish
Default                                  : No
Forced                                   : No

Text #3
ID                                       : 5
Format                                   : UTF-8
Codec ID                                 : S_TEXT/UTF8
Codec ID/Info                            : UTF-8 Plain Text
Duration                                 : 1 h 54 min
Bit rate                                 : 27 b/s
Count of elements                        : 933
Stream size                              : 23.3 KiB (0%)
Title                                    : Deutsch
Language                                 : German
Default                                  : No
Forced                                   : No

Text #4
ID                                       : 6
Format                                   : UTF-8
Codec ID                                 : S_TEXT/UTF8
Codec ID/Info                            : UTF-8 Plain Text
Duration                                 : 1 h 54 min
Bit rate                                 : 28 b/s
Count of elements                        : 785
Stream size                              : 23.5 KiB (0%)
Title                                    : Espa?ol
Language                                 : Spanish
Default                                  : No
Forced                                   : No

Text #5
ID                                       : 7
Format                                   : UTF-8
Codec ID                                 : S_TEXT/UTF8
Codec ID/Info                            : UTF-8 Plain Text
Duration                                 : 1 h 43 min
Bit rate                                 : 31 b/s
Count of elements                        : 783
Stream size                              : 24.0 KiB (0%)
Title                                    : Espa?ol (Latinoamericano)
Language                                 : Spanish
Default                                  : No
Forced                                   : No

Text #6
ID                                       : 8
Format                                   : UTF-8
Codec ID                                 : S_TEXT/UTF8
Codec ID/Info                            : UTF-8 Plain Text
Duration                                 : 1 h 54 min
Bit rate                                 : 27 b/s
Count of elements                        : 785
Stream size                              : 22.8 KiB (0%)
Title                                    : Suomi
Language                                 : Finnish
Default                                  : No
Forced                                   : No

Text #7
ID                                       : 9
Format                                   : UTF-8
Codec ID                                 : S_TEXT/UTF8
Codec ID/Info                            : UTF-8 Plain Text
Duration                                 : 1 h 54 min
Bit rate                                 : 28 b/s
Count of elements                        : 771
Stream size                              : 24.1 KiB (0%)
Title                                    : Fran?ais
Language                                 : French
Default                                  : No
Forced                                   : No

Text #8
ID                                       : 10
Format                                   : UTF-8
Codec ID                                 : S_TEXT/UTF8
Codec ID/Info                            : UTF-8 Plain Text
Duration                                 : 1 h 54 min
Bit rate                                 : 29 b/s
Count of elements                        : 806
Stream size                              : 25.0 KiB (0%)
Title                                    : Fran?ais (Canadien)
Language                                 : French
Default                                  : No
Forced                                   : No

Text #9
ID                                       : 11
Format                                   : UTF-8
Codec ID                                 : S_TEXT/UTF8
Codec ID/Info                            : UTF-8 Plain Text
Duration                                 : 1 h 54 min
Bit rate                                 : 28 b/s
Count of elements                        : 784
Stream size                              : 23.5 KiB (0%)
Title                                    : Italiano
Language                                 : Italian
Default                                  : No
Forced                                   : No

Text #10
ID                                       : 12
Format                                   : UTF-8
Codec ID                                 : S_TEXT/UTF8
Codec ID/Info                            : UTF-8 Plain Text
Duration                                 : 1 h 54 min
Bit rate                                 : 25 b/s
Count of elements                        : 699
Stream size                              : 21.0 KiB (0%)
Title                                    : Nederlands
Language                                 : Dutch
Default                                  : No
Forced                                   : No

Text #11
ID                                       : 13
Format                                   : UTF-8
Codec ID                                 : S_TEXT/UTF8
Codec ID/Info                            : UTF-8 Plain Text
Duration                                 : 1 h 54 min
Bit rate                                 : 26 b/s
Count of elements                        : 784
Stream size                              : 21.8 KiB (0%)
Title                                    : Norsk
Language                                 : Norwegian
Default                                  : No
Forced                                   : No

Text #12
ID                                       : 14
Format                                   : UTF-8
Codec ID                                 : S_TEXT/UTF8
Codec ID/Info                            : UTF-8 Plain Text
Duration                                 : 1 h 54 min
Bit rate                                 : 28 b/s
Count of elements                        : 785
Stream size                              : 23.5 KiB (0%)
Title                                    : Português
Language                                 : Portuguese
Default                                  : No
Forced                                   : No

Text #13
ID                                       : 15
Format                                   : UTF-8
Codec ID                                 : S_TEXT/UTF8
Codec ID/Info                            : UTF-8 Plain Text
Duration                                 : 1 h 54 min
Bit rate                                 : 27 b/s
Count of elements                        : 784
Stream size                              : 23.2 KiB (0%)
Title                                    : Português (Brasil)
Language                                 : Portuguese
Default                                  : No
Forced                                   : No

Text #14
ID                                       : 16
Format                                   : UTF-8
Codec ID                                 : S_TEXT/UTF8
Codec ID/Info                            : UTF-8 Plain Text
Duration                                 : 1 h 54 min
Bit rate                                 : 26 b/s
Count of elements                        : 700
Stream size                              : 22.0 KiB (0%)
Title                                    : Svenska
Language                                 : Swedish
Default                                  : No
Forced                                   : No






a48125004f4961fadf219df14af98010.zip (68.65 KB, 下载次数: 0)

回复

使用道具 举报

小黑屋|百度云资源论坛 |网站地图

本网站所有资源来自网络,如无意中侵犯了您的权益,请发邮件至 [email protected],立即清除相关链接

GMT+8, 2020-10-23 02:26 , Processed in 0.105911 second(s), 23 queries .

Powered by Discuz! X3.2

© 2001-2013 Comsenz Inc.

快速回复 返回顶部 返回列表