百度云资源论坛

 找回密码
 立即注册
搜索

另一只羔羊/血色羔羊 The.Other.Lamb.2019.1080p.BluRay.x264-GECKOS 10....

[复制链接]
百度云资源 发表于 2020-10-17 10:38:10 | 显示全部楼层 |阅读模式
帖子完整标题:另一只羔羊/血色羔羊 The.Other.Lamb.2019.1080p.BluRay.x264-GECKOS 10.96GB




◎译  名 另一只羔羊 / 血色羔羊(台)
◎片  名 The Other Lamb
◎年  代 2019
◎产  地 爱尔兰 / 比利时 / 美国
◎类  别 剧情 / 恐怖
◎语  言 英语
◎上映日期 2019-09-06(多伦多电影节)
◎片  长 97分钟
◎导  演 玛高扎塔·施莫夫兹卡 Malgorzata Szumowska
◎编  剧 C.S. McMullen
◎主  演 拉菲·卡西迪 Raffey Cassidy
       米希尔·赫伊斯曼 Michiel Huisman
       Mallory Adams
       Kelly Campbell
       Eve Connolly
       Isabelle Connolly
       Ailbhe Cowley
       Juliette Crosbie
       Zara Devlin
       David Fawaz
       丹妮斯·高夫 Denise Gough
       Jane Herbert
       Irene Kelleher
       夏洛特·穆尔 Charlotte Moore
       Eva Mullen


◎标  签 宗教 | 恐怖 | 2019 | 爱尔兰 | 剧情 | 美国 | 爱尔兰电影 | 米契尔·哈思曼

◎简  介   

  玛高扎塔·施莫夫兹卡([面目])执导,拉菲·卡西迪、米契尔·哈思曼、丹妮斯·高夫主演英语新片[另一只羔羊](The Other Lamb,暂译)宣布杀青。该片讲述一位名叫塞拉的年轻女子,她是在一个叫做“羊群”的宗教崇拜氛围中长大的。在她参加通过仪式后,她对教会及教义的看法发生了变化。凯瑟琳·S·麦克马伦操刀剧本,该片先前在爱尔兰进行拍摄。

◎获奖情况  

  第67届圣塞巴斯蒂安国际电影节(2019)
  金贝壳奖(提名) 玛高扎塔·施莫夫兹卡
Video
ID                                       : 1
Format                                   : AVC
Format/Info                              : Advanced Video Codec
Format settings                          : CABAC / 4 Ref Frames
Format settings, CABAC                   : Yes
Format settings, Reference frames        : 4 frames
Codec ID                                 : V_MPEG4/ISO/AVC
Duration                                 : 1 h 36 min
Bit rate                                 : 14.2 Mb/s
Width                                    : 1 920 pixels
Height                                   : 1 080 pixels
Display aspect ratio                     : 16:9
Frame rate mode                          : Constant
Frame rate                               : 23.976 (24000/1001/189150) FPS
Color space                              : YUV
Chroma subsampling                       : 4:2:0
Bit depth                                : 8 bits
Scan type                                : Progressive
Bits/(Pixel*Frame)                       : 0.285
Stream size                              : 9.58 GiB (87%)
Writing library                          : x264 core 161 r3018 db0d417
Encoding settings                        : cabac=1 / ref=4 / deblock=1:-3:-3 / analyse=0x3:0x133 / me=umh / subme=9 / psy=1 / psy_rd=1.20:0.00 / mixed_ref=1 / me_range=16 / chroma_me=1 / trellis=2 / 8x8dct=1 / cqm=0 / deadzone=21,11 / fast_pskip=0 / chroma_qp_offset=-2 / threads=24 / lookahead_threads=2 / sliced_threads=0 / nr=0 / decimate=0 / interlaced=0 / bluray_compat=0 / constrained_intra=0 / bframes=3 / b_pyramid=2 / b_adapt=2 / b_bias=0 / direct=3 / weightb=1 / open_gop=0 / weightp=2 / keyint=250 / keyint_min=23 / scenecut=40 / intra_refresh=0 / rc=crf / mbtree=0 / crf=18.0 / qcomp=0.60 / qpmin=0 / qpmax=69 / qpstep=4 / ip_ratio=1.40 / pb_ratio=1.30 / aq=3:0.90
Default                                  : Yes
Forced                                   : No
Color range                              : Limited
Matrix coefficients                      : BT.709

Audio
ID                                       : 2
Format                                   : DTS XLL
Format/Info                              : Digital Theater Systems
Commercial name                          : DTS-HD Master Audio
Codec ID                                 : A_DTS
Duration                                 : 1 h 36 min
Bit rate mode                            : Variable
Bit rate                                 : 2 028 kb/s
Channel(s)                               : 6 channels
Channel layout                           : C L R Ls Rs LFE
Sampling rate                            : 48.0 kHz
Frame rate                               : 93.750 FPS (512 SPF)
Bit depth                                : 16 bits
Compression mode                         : Lossless
Stream size                              : 1.37 GiB (13%)
Language                                 : English
Default                                  : Yes
Forced                                   : No

Text #1
ID                                       : 3
Format                                   : PGS
Muxing mode                              : zlib
Codec ID                                 : S_HDMV/PGS
Codec ID/Info                            : Picture based subtitle format used on BDs/HD-DVDs
Duration                                 : 1 h 35 min
Bit rate                                 : 17.9 kb/s
Count of elements                        : 1474
Stream size                              : 12.2 MiB (0%)
Title                                    : SDH
Language                                 : English
Default                                  : No
Forced                                   : No

Text #2
ID                                       : 4
Format                                   : PGS
Muxing mode                              : zlib
Codec ID                                 : S_HDMV/PGS
Codec ID/Info                            : Picture based subtitle format used on BDs/HD-DVDs
Duration                                 : 1 h 31 min
Bit rate                                 : 14.0 kb/s
Count of elements                        : 956
Stream size                              : 9.24 MiB (0%)
Language                                 : Spanish
Default                                  : No
Forced                                   : No

Menu
00:00:00.000                             : en:Chapter 01
00:09:13.845                             : en:Chapter 02
00:14:48.930                             : en:Chapter 03
00:24:19.625                             : en:Chapter 04
00:34:43.373                             : en:Chapter 05
00:39:07.679                             : en:Chapter 06
00:48:41.627                             : en:Chapter 07
00:56:37.394                             : en:Chapter 08
01:03:48.241                             : en:Chapter 09
01:15:00.371                             : en:Chapter 10
01:25:01.763                             : en:Chapter 11
01:32:56.070                             : en:Chapter 12






16fa09e59043e06d725d8384a46e53cf.zip (55.5 KB, 下载次数: 0)

回复

使用道具 举报

小黑屋|百度云资源论坛 |网站地图

本网站所有资源来自网络,如无意中侵犯了您的权益,请发邮件至 [email protected],立即清除相关链接

GMT+8, 2020-10-25 22:17 , Processed in 0.095646 second(s), 23 queries .

Powered by Discuz! X3.2

© 2001-2013 Comsenz Inc.

快速回复 返回顶部 返回列表