百度云资源论坛

 找回密码
 立即注册
搜索

[BD-4K] 回到未来/回到未来第一集 Back.to.the.Future.1985.2160p.BluRay.x265....

[复制链接]
帖子完整标题:回到未来/回到未来第一集 Back.to.the.Future.1985.2160p.BluRay.x265.10bit.SDR.DTS-HD.MA.TrueHD.7.1.Atmos-SWTYBLZ 50.09GB




◎译  名 回到未来/回到未来第一集
◎片  名 Back to the Future
◎年  代 1985
◎产  地 美国
◎类  别 喜剧 / 科幻 / 冒险
◎语  言 英语
◎上映日期 1985-07-03(美国)
◎IMDb评分  8.5/10 from 1034996 users
◎片  长 116分钟
◎导  演 罗伯特·泽米吉斯 Robert Zemeckis
◎编  剧 罗伯特·泽米吉斯 Robert Zemeckis / 鲍勃·盖尔 Bob Gale
◎主  演 迈克尔·J·福克斯 Michael J. Fox
       克里斯托弗·洛伊德 Christopher Lloyd
       莉·汤普森 Lea Thompson
       克里斯平·格洛弗 Crispin Glover
       托马斯·F·威尔森 Thomas F. Wilson
       克劳迪娅·韦尔斯 Claudia Wells
       马克·麦克卢尔 Marc McClure
       温迪·乔·斯佩博 Wendie Jo Sperber
       乔治·第桑佐 George DiCenzo
       弗兰西斯·李·麦克凯恩 Frances Lee McCain
       詹姆斯·托根 James Tolkan
       J·J·科恩 J.J. Cohen
       凯西·希玛兹科 Casey Siemaszko
       比利·赞恩 Billy Zane
       小哈利·沃特斯 Harry Waters Jr.
       唐纳德·富利洛夫 Donald Fullilove
       丽萨·弗里曼 Lisa Freeman
       克里斯滕·考夫曼 Cristen Kauffman
       萨奇·帕克 Sachi Parker
       玛丽·艾伦·特雷纳 Mary Ellen Trainor
       麦娅·布鲁顿 Maia Brewton
       加里·莱利 Gary Riley
       艾尔莎·瑞雯 Elsa Raven
       休易·路易斯 Huey Lewis
       Tiger
       德博拉·哈蒙 Deborah Harmon
       诺曼·阿尔登 Norman Alden
       考特尼·盖恩斯 Courtney Gains
       乔治·“巴克”·弗劳尔 George 'Buck' Flower
       艾薇·贝瑟恩 Ivy Bethune
       罗伯特·克兰茨 Robert Krantz
       Tom Willett
       查尔斯·L·坎贝尔 Charles L. Campbell
       贾森·赫维 Jason Hervey
       Jeff O'Haco
       Will Hare
       Tom Tangen
       Jason Marin
       Tommy Thomas
       Read Morgan
       Karen Petrasek

◎标  签 科幻 | 美国 | 经典 | 喜剧 | 回到未来 | 1985 | 美国电影 | 穿越

◎简  介

  布朗博士(克里斯托弗?洛伊德 Christopher Lloyd 饰)总是有些稀奇古怪的发明。在一次试验他发明的时光机器时,他找来了忘年交高中生马丁(迈克尔?J?福克斯 Michael J. Fox 饰)。岂料实验过程中博士被歹徒杀害了,马丁慌乱中架着时光机逃跑,回到了30年前。
  
  马丁遇到了30年前的父亲乔治(克利斯丁?格拉夫 Crispin Glover 饰)和母亲洛莲(莉?汤普森 Lea Thompson 饰)。马丁一边找寻30年前的布朗博士,好让自己回到未来;一边尽力撮合乔治和洛莲,以免自己在以后消失了。但乔治为人懦弱,马丁在撮合过程中弄巧成拙让洛莲爱上了自己。还有令人讨厌的贝夫从中作梗,令马丁恼怒不已。
  
  马丁周旋在他的双亲之间,还要尽快找到博士,想办法回到未来……

◎获奖情况

  第58届奥斯卡金像奖 ?(1986)
  最佳原创剧本(提名) 鲍勃·盖尔?/?罗伯特·泽米吉斯
  最佳音效剪辑 查尔斯·L·坎贝尔?/?罗伯特·拉特利奇
  最佳音响(提名) 威廉·B·卡普兰?/?B·丁尼生·塞巴斯蒂安二世?/?比尔·瓦尼?/?罗伯特·瑟尔威尔
  最佳原创歌曲(提名) 休易·路易斯?/?克里斯·海耶斯?/?约翰尼·科拉
Video
ID                                       : 1
Format                                   : HEVC
Format/Info                              : High Efficiency Video Coding
Codec ID                                 : V_MPEGH/ISO/HEVC
Duration                                 : 1 h 56 min
Bit rate                                 : 52.3 Mb/s
Width                                    : 3 840 pixels
Height                                   : 2 076 pixels
Display aspect ratio                     : 1.85:1
Frame rate mode                          : Constant
Frame rate                               : 23.976 (24000/1001/189150) FPS
Color space                              : YUV
Chroma subsampling                       : 4:2:0
Bit depth                                : 10 bits
Bits/(Pixel*Frame)                       : 0.274
Stream size                              : 42.4 GiB (85%)
Title                                    : Back.to.the.Future.1985.2160p.BluRay.x265.10bit.SDR.DTS-HD.MA.TrueHD.7.1.Atmos-SWTYBLZ
Writing library                          : x265 3.0ed72af837053:[Windows][GCC 8.2.0][64 bit] 10bit
Encoding settings                        : cpuid=1111039 / frame-threads=6 / numa-pools=40 / wpp / no-pmode / no-pme / no-psnr / no-ssim / log-level=2 / input-csp=1 / input-res=3840x2076 / interlace=0 / total-frames=166928 / level-idc=51 / high-tier=1 / uhd-bd=0 / ref=3 / no-allow-non-conformance / repeat-headers / annexb / aud / hrd / info / hash=0 / no-temporal-layers / no-open-gop / min-keyint=1 / keyint=24 / gop-lookahead=0 / bframes=4 / b-adapt=2 / b-pyramid / bframe-bias=0 / rc-lookahead=25 / lookahead-slices=4 / scenecut=40 / radl=0 / no-splice / no-intra-refresh / ctu=64 / min-cu-size=8 / no-rect / no-amp / max-tu-size=32 / tu-inter-depth=1 / tu-intra-depth=1 / limit-tu=0 / rdoq-level=0 / dynamic-rd=0.00 / no-ssim-rd / signhide / no-tskip / nr-intra=0 / nr-inter=0 / no-constrained-intra / strong-intra-smoothing / max-merge=2 / limit-refs=3 / no-limit-modes / me=1 / subme=2 / merange=57 / temporal-mvp / weightp / no-weightb / no-analyze-src-pics / deblock=0:0 / no-sao / no-sao-non-deblock / rd=3 / no-early-skip / rskip / no-fast-intra / no-tskip-fast / no-cu-lossless / no-b-intra / no-splitrd-skip / rdpenalty=0 / psy-rd=2.00 / psy-rdoq=0.00 / no-rd-refine / no-lossless / cbqpoffs=0 / crqpoffs=0 / rc=crf / crf=16.0 / qcomp=0.60 / qpstep=4 / stats-write=0 / stats-read=0 / vbv-maxrate=160000 / vbv-bufsize=160000 / vbv-init=0.9 / crf-max=0.0 / crf-min=0.0 / ipratio=1.40 / pbratio=1.30 / aq-mode=1 / aq-strength=1.00 / cutree / zone-count=0 / no-strict-cbr / qg-size=32 / no-rc-grain / qpmax=69 / qpmin=0 / no-const-vbv / sar=1 / overscan=0 / videoformat=5 / range=0 / colorprim=2 / transfer=2 / colormatrix=2 / chromaloc=0 / display-window=0 / max-cll=0,0 / min-luma=0 / max-luma=1023 / log2-max-poc-lsb=8 / vui-timing-info / vui-hrd-info / slices=1 / opt-qp-pps / opt-ref-list-length-pps / no-multi-pass-opt-rps / scenecut-bias=0.05 / no-opt-cu-delta-qp / no-aq-motion / no-hdr / no-hdr-opt / no-dhdr10-opt / no-idr-recovery-sei / analysis-reuse-level=5 / scale-factor=0 / refine-intra=0 / refine-inter=0 / refine-mv=0 / refine-ctu-distortion=0 / no-limit-sao / ctu-info=0 / no-lowpass-dct / refine-analysis-type=0 / copy-pic=1 / max-ausize-factor=1.0 / no-dynamic-refine / no-single-sei / no-hevc-aq / qp-adaptation-range=1.00
Default                                  : Yes
Forced                                   : No

Audio #1
ID                                       : 2
Format                                   : MLP FBA 16-ch
Format/Info                              : Meridian Lossless Packing FBA with 16-channel presentation
Commercial name                          : Dolby TrueHD with Dolby Atmos
Codec ID                                 : A_TRUEHD
Duration                                 : 1 h 56 min
Bit rate mode                            : Variable
Bit rate                                 : 4 213 kb/s
Maximum bit rate                         : 7 626 kb/s
Channel(s)                               : 8 channels
Channel layout                           : L R C LFE Ls Rs Lb Rb
Sampling rate                            : 48.0 kHz
Frame rate                               : 1 200.000 FPS (40 SPF)
Compression mode                         : Lossless
Stream size                              : 3.41 GiB (7%)
Title                                    : Back.to.the.Future.1985.2160p.BluRay.x265.10bit.SDR.DTS-HD.MA.TrueHD.7.1.Atmos-SWTYBLZ
Language                                 : English
Default                                  : Yes
Forced                                   : No
Number of dynamic objects                : 11
Bed channel count                        : 1 channel
Bed channel configuration                : LFE

Audio #2
ID                                       : 3
Format                                   : DTS XLL
Format/Info                              : Digital Theater Systems
Commercial name                          : DTS-HD Master Audio
Codec ID                                 : A_DTS
Duration                                 : 1 h 56 min
Bit rate mode                            : Variable
Bit rate                                 : 4 268 kb/s
Channel(s)                               : 8 channels
Channel layout                           : C L R LFE Lb Rb Lss Rss
Sampling rate                            : 48.0 kHz
Frame rate                               : 93.750 FPS (512 SPF)
Bit depth                                : 24 bits
Compression mode                         : Lossless
Stream size                              : 3.46 GiB (7%)
Title                                    : Back.to.the.Future.1985.2160p.BluRay.x265.10bit.SDR.DTS-HD.MA.TrueHD.7.1.Atmos-SWTYBLZ
Language                                 : English
Default                                  : No
Forced                                   : No


Menu
00:00:00.000                             : en:Main Titles
00:04:13.545                             : enate for School
00:06:47.282                             : en:The Slacker
00:11:45.246                             : en:The Family McFly
00:18:04.166                             : en:A Time Machine?
00:28:12.274                             : en:Escape to the Past
00:31:30.680                             : en:1955
00:38:40.693                             : enad the Dork
00:41:22.313                             : en:Calvin & Lorraine
00:47:53.370                             : en:Future Boy & Doc
00:55:53.141                             : en:Marty\'s Problem
00:58:49.860                             : en:The Matchmaker
01:05:16.788                             : en:Skateboard Hero
01:16:40.304                             : en:The Big Date
01:20:14.643                             : en:The Real George
01:27:23.321                             : en:Johnny B. Goode
01:31:12.050                             : en:Back to the Future
01:41:40.553                             : enoc\'s Decision
01:46:41.437                             : en:Future Shock
01:51:24.511                             : en:Roads? (Credits)






28317ad9e6ce49588d33969a2cfd58c2.zip (126.82 KB, 下载次数: 0)

回复

使用道具 举报

小黑屋|百度云资源论坛 |网站地图

本网站所有资源来自网络,如无意中侵犯了您的权益,请发邮件至 [email protected],立即清除相关链接

GMT+8, 2020-10-23 04:42 , Processed in 0.101963 second(s), 23 queries .

Powered by Discuz! X3.2

© 2001-2013 Comsenz Inc.

快速回复 返回顶部 返回列表