百度云资源论坛

 找回密码
 立即注册
搜索

死尸无言 The.Nightshifter.2018.PORTUGUESE.1080p.BluRay.x264-HANDJOB 9.41GB

[复制链接]
百度云资源 发表于 2020-10-16 07:21:41 | 显示全部楼层 |阅读模式
帖子完整标题:死尸无言 The.Nightshifter.2018.PORTUGUESE.1080p.BluRay.x264-HANDJOB 9.41GB




◎译  名 死尸无言 / Among the Living / The Nightshifter / 窃窃尸语(台)
◎片  名 Morto N?o Fala
◎年  代 2018
◎产  地 巴西
◎类  别 悬疑 / 惊悚 / 恐怖
◎语  言 葡萄牙语
◎上映日期 2018-07-17(加拿大国际奇幻电影节)
◎IMDb评分  6.2/10 from 1294 users
◎片  长 104分钟
◎导  演 戴利逊·哈玛卢 Dennison Ramalho
◎编  剧 克劳迪雅·若文 Cláudia Jouvin / 戴利逊·哈玛卢 Dennison Ramalho / Marco de Castro
◎主  演 丹尼尔·德·奥利维拉 Daniel de Oliveira
       法比乌娜·那西门托 Fabiula Nascimento
       比安卡·孔帕拉托 Bianca Comparato
       马尔科·里卡 Marco Ricca
       Marcos Kligman
       Annalara Prates


◎标  签 恐怖 | 巴西 | 惊悚 | 灵异 | 悬疑 | 巴西电影 | 2018 | 复仇

◎简  介   

  Stênio (Daniel de Oliveira) works the night shift at a morgue in a very large, very violent city. On the job, he sees cadavers in every conceivable state, often the victims of horrific gang warfare. While most would be rather unsettled by it all, Stênio is not. For the dead speak to him. Not in any metaphorical sense but in a very literal way.Stênio was born with an occult gift and while not everyone would be at ease conversing with mutilated cadavers on slabs, he has learned that there are endless secrets that can be gleaned this way. Related to crime. To prosperity.  One day he learns a terrible secret about people in his own life. He commits the sin of acting on knowledge obtained from the dead, cursing himself and those dearest to him in the process…
Video
ID                                       : 1
Format                                   : AVC
Format/Info                              : Advanced Video Codec
Format settings                          : CABAC / 5 Ref Frames
Format settings, CABAC                   : Yes
Format settings, Reference frames        : 5 frames
Codec ID                                 : V_MPEG4/ISO/AVC
Duration                                 : 1 h 50 min
Bit rate                                 : 11.3 Mb/s
Width                                    : 1 920 pixels
Height                                   : 804 pixels
Display aspect ratio                     : 2.40:1
Frame rate mode                          : Constant
Frame rate                               : 23.976 (24000/1001/189150) FPS
Color space                              : YUV
Chroma subsampling                       : 4:2:0
Bit depth                                : 8 bits
Scan type                                : Progressive
Bits/(Pixel*Frame)                       : 0.306
Stream size                              : 8.76 GiB (93%)
Writing library                          : x264 core 157 r2935 545de2f
Encoding settings                        : cabac=1 / ref=5 / deblock=1:-3:-3 / analyse=0x3:0x133 / me=umh / subme=10 / psy=1 / psy_rd=1.00:0.00 / mixed_ref=1 / me_range=32 / chroma_me=1 / trellis=2 / 8x8dct=1 / cqm=0 / deadzone=21,11 / fast_pskip=0 / chroma_qp_offset=-2 / threads=18 / lookahead_threads=4 / sliced_threads=0 / nr=0 / decimate=0 / interlaced=0 / bluray_compat=0 / constrained_intra=0 / bframes=16 / b_pyramid=2 / b_adapt=2 / b_bias=0 / direct=3 / weightb=1 / open_gop=0 / weightp=2 / keyint=240 / keyint_min=24 / scenecut=40 / intra_refresh=0 / rc_lookahead=60 / rc=crf / mbtree=0 / crf=14.5 / qcomp=0.60 / qpmin=0 / qpmax=69 / qpstep=4 / vbv_maxrate=62500 / vbv_bufsize=78125 / crf_max=0.0 / nal_hrd=none / filler=0 / ip_ratio=1.40 / pb_ratio=1.30 / aq=2:1.00
Default                                  : Yes
Forced                                   : No
Color range                              : Limited
Color primaries                          : BT.709
Transfer characteristics                 : BT.709
Matrix coefficients                      : BT.709

Audio #1
ID                                       : 2
Format                                   : AC-3
Format/Info                              : Audio Coding 3
Commercial name                          : Dolby Digital
Codec ID                                 : A_AC3
Duration                                 : 1 h 50 min
Bit rate mode                            : Constant
Bit rate                                 : 640 kb/s
Channel(s)                               : 6 channels
Channel layout                           : L R C LFE Ls Rs
Sampling rate                            : 48.0 kHz
Frame rate                               : 31.250 FPS (1536 SPF)
Bit depth                                : 16 bits
Compression mode                         : Lossy
Stream size                              : 506 MiB (5%)
Language                                 : Portuguese
Service kind                             : Complete Main
Default                                  : Yes
Forced                                   : No

Audio #2
ID                                       : 3
Format                                   : AC-3
Format/Info                              : Audio Coding 3
Commercial name                          : Dolby Digital
Codec ID                                 : A_AC3
Duration                                 : 1 h 50 min
Bit rate mode                            : Constant
Bit rate                                 : 192 kb/s
Channel(s)                               : 2 channels
Channel layout                           : L R
Sampling rate                            : 48.0 kHz
Frame rate                               : 31.250 FPS (1536 SPF)
Bit depth                                : 16 bits
Compression mode                         : Lossy
Stream size                              : 152 MiB (2%)
Title                                    : English Dub
Language                                 : English
Service kind                             : Complete Main
Default                                  : No
Forced                                   : No

Text #1
ID                                       : 4
Format                                   : UTF-8
Codec ID                                 : S_TEXT/UTF8
Codec ID/Info                            : UTF-8 Plain Text
Duration                                 : 1 h 43 min
Bit rate                                 : 37 b/s
Count of elements                        : 1001
Stream size                              : 28.7 KiB (0%)
Language                                 : English
Default                                  : Yes
Forced                                   : No

Text #2
ID                                       : 5
Format                                   : UTF-8
Codec ID                                 : S_TEXT/UTF8
Codec ID/Info                            : UTF-8 Plain Text
Duration                                 : 1 h 43 min
Bit rate                                 : 51 b/s
Count of elements                        : 1147
Stream size                              : 39.2 KiB (0%)
Title                                    : SDH
Language                                 : English
Default                                  : No
Forced                                   : No

Text #3
ID                                       : 6
Format                                   : UTF-8
Codec ID                                 : S_TEXT/UTF8
Codec ID/Info                            : UTF-8 Plain Text
Duration                                 : 1 h 44 min
Bit rate                                 : 41 b/s
Count of elements                        : 973
Stream size                              : 31.9 KiB (0%)
Language                                 : French
Default                                  : No
Forced                                   : No

Text #4
ID                                       : 7
Format                                   : UTF-8
Codec ID                                 : S_TEXT/UTF8
Codec ID/Info                            : UTF-8 Plain Text
Duration                                 : 1 h 44 min
Bit rate                                 : 43 b/s
Count of elements                        : 1048
Stream size                              : 33.3 KiB (0%)
Title                                    : SDH
Language                                 : French
Default                                  : No
Forced                                   : No

Text #5
ID                                       : 8
Format                                   : PGS
Muxing mode                              : zlib
Codec ID                                 : S_HDMV/PGS
Codec ID/Info                            : Picture based subtitle format used on BDs/HD-DVDs
Duration                                 : 1 h 44 min
Bit rate                                 : 15.1 kb/s
Count of elements                        : 1944
Stream size                              : 11.3 MiB (0%)
Language                                 : Spanish
Default                                  : No
Forced                                   : No

Menu
00:00:00.000                             : :Chapter 1
00:09:36.576                             : :Chapter 2
00:19:31.504                             : :Chapter 3
00:31:33.850                             : :Chapter 4
00:38:47.992                             : :Chapter 5
00:52:45.788                             : :Chapter 6
01:01:53.210                             : :Chapter 7
01:11:11.642                             : :Chapter 8
01:18:25.993                             : :Chapter 9
01:27:43.008                             : :Chapter 10
01:32:57.906                             : :Chapter 11
01:44:06.323                             : :Chapter 12
01:45:35.329                             : :Chapter 13




                                                                                                                                                                                                        
                                                                                                                                                                                                                                          
8a0fe145a403bafa0b951f0f6876ee72.zip (47.73 KB, 下载次数: 0)

回复

使用道具 举报

小黑屋|百度云资源论坛 |网站地图

本网站所有资源来自网络,如无意中侵犯了您的权益,请发邮件至 [email protected],立即清除相关链接

GMT+8, 2020-10-28 02:54 , Processed in 0.123111 second(s), 23 queries .

Powered by Discuz! X3.2

© 2001-2013 Comsenz Inc.

快速回复 返回顶部 返回列表