百度云资源论坛

 找回密码
 立即注册
搜索

绝命鳄口 Black.Water.Abyss.2020.1080p.BluRay.x264-PFa 7.55GB

[复制链接]
百度云资源 发表于 2020-10-16 07:21:41 | 显示全部楼层 |阅读模式
-->
帖子完整标题:绝命鳄口 Black.Water.Abyss.2020.1080p.BluRay.x264-PFa 7.55GB




◎译  名 绝命鳄口/Black Water: The Abyss/黑水:深渊
◎片  名 Black Water: Abyss
◎年  代 2020
◎产  地 澳大利亚,美国
◎类  别 剧情 / 动作 / 惊悚
◎语  言 英语
◎上映日期 2020-07-04(英国) / 2020-08-07(美国)
◎IMDb评分  4.5/10 from 2441 users
◎  https://www.imdb.com/title/tt7978672/
◎豆瓣评分 4.2/10 from 484 users
◎ 
◎片  长 99分钟
◎导  演 安德鲁·陶克吉  Andrew Traucki
◎编  剧 约翰·莱德利 John Ridley / 莎拉·史密斯 Sarah Smith
◎主  演 杰西卡·麦克娜美 Jessica McNamee
       卢克·米切尔 Luke Mitchell
       阿玛莉·沃德 Amali Ward
       安东尼·J·夏普 Anthony J. Sharpe
       本杰明·霍特杰斯 Benjamin Hoetjes
       J·玛 J Ma
       菊池润美 Rumi Kikuchi
       林恩·罗斯 Lynne Rose

◎标  签 惊悚 | 2020 | 灾难 | 澳大利亚 | 恐怖 | 美国 | 澳大利亞 | 绝命鳄口

◎简  介

  一对喜欢冒险的夫妇说服他们的朋友去探索澳大利亚北部森林中一个从未有人踏入的洞穴系统。忽然暴风雨来临,大家决定进入地下洞穴避难。不想洪水冲进了洞穴,氧气含量逐渐下降,大家被困在了一个完全未知的环境里。他们没有料到的是,潮湿的空气和不断上升的水位只是这次旅程最小的挑战,洪水还带来了最危险的捕食者:一群危险又饥饿的鳄鱼。当危险逐渐升温,这群朋友之间彼此隐瞒的秘密渐渐被揭开,他们争吵打斗、彼此背叛,只为在这个险境中生存下来。
Video
ID                                       : 1
Format                                   : AVC
Format/Info                              : Advanced Video Codec
Format profile                           : [email protected]
Format settings                          : CABAC / 5 Ref Frames
Format settings, CABAC                   : Yes
Format settings, Reference frames        : 5 frames
Codec ID                                 : V_MPEG4/ISO/AVC
Duration                                 : 1 h 38 min
Bit rate                                 : 9 097 kb/s
Width                                    : 1 920 pixels
Height                                   : 804 pixels
Display aspect ratio                     : 2.40:1
Frame rate mode                          : Constant
Frame rate                               : 23.976 (24000/1001/189150) FPS
Color space                              : YUV
Chroma subsampling                       : 4:2:0
Bit depth                                : 8 bits
Scan type                                : Progressive
Bits/(Pixel*Frame)                       : 0.246
Stream size                              : 6.27 GiB (83%)
Writing library                          : x264 core 157 r2969 d4099dd
Encoding settings                        : cabac=1 / ref=5 / deblock=1:-3:-3 / analyse=0x3:0x133 / me=umh / subme=9 / psy=1 / psy_rd=1.00:0.00 / mixed_ref=1 / me_range=16 / chroma_me=1 / trellis=2 / 8x8dct=1 / cqm=0 / deadzone=21,11 / fast_pskip=1 / chroma_qp_offset=-2 / threads=12 / lookahead_threads=1 / sliced_threads=0 / nr=0 / decimate=1 / interlaced=0 / bluray_compat=0 / constrained_intra=0 / bframes=3 / b_pyramid=2 / b_adapt=2 / b_bias=0 / direct=3 / weightb=1 / open_gop=0 / weightp=2 / keyint=250 / keyint_min=23 / scenecut=40 / intra_refresh=0 / rc_lookahead=60 / rc=crf / mbtree=1 / crf=16.0 / qcomp=0.60 / qpmin=0 / qpmax=69 / qpstep=4 / ip_ratio=1.40 / aq=3:0.70
Language                                 : English
Default                                  : Yes
Forced                                   : No

Audio
ID                                       : 2
Format                                   : DTS XLL
Format/Info                              : Digital Theater Systems
Commercial name                          : DTS-HD Master Audio
Codec ID                                 : A_DTS
Duration                                 : 1 h 38 min
Bit rate mode                            : Variable
Bit rate                                 : 1 847 kb/s
Channel(s)                               : 6 channels
Channel layout                           : C L R Ls Rs LFE
Sampling rate                            : 48.0 kHz
Frame rate                               : 93.750 FPS (512 SPF)
Bit depth                                : 16 bits
Compression mode                         : Lossless
Stream size                              : 1.27 GiB (17%)
Language                                 : English
Default                                  : Yes
Forced                                   : No

Text
ID                                       : 3
Format                                   : PGS
Muxing mode                              : zlib
Codec ID                                 : S_HDMV/PGS
Codec ID/Info                            : Picture based subtitle format used on BDs/HD-DVDs
Duration                                 : 1 h 37 min
Bit rate                                 : 16.6 kb/s
Count of elements                        : 1658
Stream size                              : 11.5 MiB (0%)
Language                                 : English
Default                                  : Yes
Forced                                   : No




                                                                                                                                                                                                        
                                                                                                                                                                                                                                                                                                                                                                                                                                                                                                                                                                                                                                                                                                                                                                                                                                                        
4147a0eb88f79d142241d4749ac5c815.zip (38.43 KB, 下载次数: 0)

回复

使用道具 举报

小黑屋|百度云资源论坛 |网站地图

本网站所有资源来自网络,如无意中侵犯了您的权益,请发邮件至 [email protected],立即清除相关链接

GMT+8, 2020-10-25 20:54 , Processed in 0.134895 second(s), 23 queries .

Powered by Discuz! X3.2

© 2001-2013 Comsenz Inc.

快速回复 返回顶部 返回列表