百度云资源论坛

 找回密码
 立即注册
搜索

造访惊魂 Guests.2019.RUSSIAN.1080p.BluRay.x264-HANDJOB 7.48GB

[复制链接]
百度云电影 发表于 2020-10-14 09:44:30 | 显示全部楼层 |阅读模式
帖子完整标题:造访惊魂 Guests.2019.RUSSIAN.1080p.BluRay.x264-HANDJOB 7.48GB




◎译  名 造访惊魂/Gosti/Guests
◎片  名 Гости
◎年  代 2019
◎产  地 俄罗斯 Russia
◎类  别 恐怖
◎语  言 俄语 Russian
◎上映日期 2019-03-07(俄罗斯)
◎IMDb评分  3.8/10 from 255 users
◎片  长 88分钟
◎主  演 尤里·切里辛 Yuri Chursin
       安吉丽娜·斯特雷奇娜 Angelina Strechina

◎标  签 俄罗斯 | 恐怖 | 惊悚 | 俄罗斯电影 | 恶魔/驱魔系列 | 东斯拉夫 | 恐怖惊悚悬疑重口血腥 | 2018

◎简  介

  Young Katya meets a merry company of visiting guys who have a specific entertainment - to organize parties in other people's empty houses. And Katya knows the right place: an old country house on the coast, the owner of which left for a long time. The secluded house, in which the spiritualist salon was at the beginning of the last century, seems to everyone an excellent option. Alarming, even the terrible abandonment of this place does not frighten anyone ... In the midst of the party, someone whom Katya never expected to see appears: the mysterious master of the house ... The man…
Video
ID                                       : 1
Format                                   : AVC
Format/Info                              : Advanced Video Codec
Format settings                          : CABAC / 5 Ref Frames
Format settings, CABAC                   : Yes
Format settings, Reference frames        : 5 frames
Codec ID                                 : V_MPEG4/ISO/AVC
Duration                                 : 1 h 27 min
Bit rate                                 : 11.6 Mb/s
Width                                    : 1 920 pixels
Height                                   : 800 pixels
Display aspect ratio                     : 2.40:1
Frame rate mode                          : Constant
Frame rate                               : 23.976 (24000/1001/189150) FPS
Color space                              : YUV
Chroma subsampling                       : 4:2:0
Bit depth                                : 8 bits
Scan type                                : Progressive
Bits/(Pixel*Frame)                       : 0.314
Stream size                              : 7.07 GiB (95%)
Writing library                          : x264 core 157 r2935 545de2f
Encoding settings                        : cabac=1 / ref=5 / deblock=1:-3:-3 / analyse=0x3:0x133 / me=umh / subme=10 / psy=1 / psy_rd=1.00:0.00 / mixed_ref=1 / me_range=32 / chroma_me=1 / trellis=2 / 8x8dct=1 / cqm=0 / deadzone=21,11 / fast_pskip=0 / chroma_qp_offset=-2 / threads=25 / lookahead_threads=6 / sliced_threads=0 / nr=0 / decimate=0 / interlaced=0 / bluray_compat=0 / constrained_intra=0 / bframes=16 / b_pyramid=2 / b_adapt=2 / b_bias=0 / direct=3 / weightb=1 / open_gop=0 / weightp=2 / keyint=240 / keyint_min=24 / scenecut=40 / intra_refresh=0 / rc_lookahead=60 / rc=crf / mbtree=0 / crf=19.0 / qcomp=0.60 / qpmin=0 / qpmax=69 / qpstep=4 / vbv_maxrate=62500 / vbv_bufsize=78125 / crf_max=0.0 / nal_hrd=none / filler=0 / ip_ratio=1.40 / pb_ratio=1.30 / aq=2:1.00
Default                                  : Yes
Forced                                   : No
Color range                              : Limited
Color primaries                          : BT.709
Transfer characteristics                 : BT.709
Matrix coefficients                      : BT.709

Audio
ID                                       : 2
Format                                   : AC-3
Format/Info                              : Audio Coding 3
Commercial name                          : Dolby Digital
Codec ID                                 : A_AC3
Duration                                 : 1 h 27 min
Bit rate mode                            : Constant
Bit rate                                 : 640 kb/s
Channel(s)                               : 6 channels
Channel layout                           : L R C LFE Ls Rs
Sampling rate                            : 48.0 kHz
Frame rate                               : 31.250 FPS (1536 SPF)
Compression mode                         : Lossy
Stream size                              : 401 MiB (5%)
Language                                 : Russian
Service kind                             : Complete Main
Default                                  : Yes
Forced                                   : No

Text #1
ID                                       : 3
Format                                   : UTF-8
Codec ID                                 : S_TEXT/UTF8
Codec ID/Info                            : UTF-8 Plain Text
Duration                                 : 1 h 23 min
Bit rate                                 : 28 b/s
Count of elements                        : 525
Stream size                              : 17.5 KiB (0%)
Language                                 : English
Default                                  : Yes
Forced                                   : No

Text #2
ID                                       : 4
Format                                   : PGS
Muxing mode                              : zlib
Codec ID                                 : S_HDMV/PGS
Codec ID/Info                            : Picture based subtitle format used on BDs/HD-DVDs
Duration                                 : 43 min 54 s
Bit rate                                 : 616 b/s
Count of elements                        : 12
Stream size                              : 198 KiB (0%)
Language                                 : German
Default                                  : No
Forced                                   : No

Text #3
ID                                       : 5
Format                                   : PGS
Muxing mode                              : zlib
Codec ID                                 : S_HDMV/PGS
Codec ID/Info                            : Picture based subtitle format used on BDs/HD-DVDs
Duration                                 : 1 h 23 min
Bit rate                                 : 18.5 kb/s
Count of elements                        : 1054
Stream size                              : 11.1 MiB (0%)
Language                                 : Dutch
Default                                  : No
Forced                                   : No

Text #4
ID                                       : 6
Format                                   : PGS
Muxing mode                              : zlib
Codec ID                                 : S_HDMV/PGS
Codec ID/Info                            : Picture based subtitle format used on BDs/HD-DVDs
Duration                                 : 1 h 23 min
Bit rate                                 : 20.6 kb/s
Count of elements                        : 1064
Stream size                              : 12.3 MiB (0%)
Language                                 : German
Default                                  : No
Forced                                   : No

Menu
00:00:00.000                             : :Chapter 1
00:07:10.096                             : :Chapter 2
00:14:39.837                             : :Chapter 3
00:20:55.463                             : :Chapter 4
00:26:52.194                             : :Chapter 5
00:33:16.828                             : :Chapter 6
00:39:48.094                             : :Chapter 7
00:44:53.232                             : :Chapter 8
00:53:08.394                             : :Chapter 9
01:00:05.560                             : :Chapter 10
01:08:40.783                             : :Chapter 11
01:18:41.258                             : :Chapter 12





f5ce3e828d1d12a7a71b70acae531960.zip (38.05 KB, 下载次数: 0)

回复

使用道具 举报

小黑屋|百度云资源论坛 |网站地图

本网站所有资源来自网络,如无意中侵犯了您的权益,请发邮件至 [email protected],立即清除相关链接

GMT+8, 2020-10-25 22:38 , Processed in 0.110096 second(s), 23 queries .

Powered by Discuz! X3.2

© 2001-2013 Comsenz Inc.

快速回复 返回顶部 返回列表