百度云资源论坛

 找回密码
 立即注册
搜索

黑暗之日 The.Great.Darkened.Days.2018.FRENCH.1080p.BluRay.x264.DD5.1-EA 1...

[复制链接]
百度云电影 发表于 2020-10-14 09:44:30 | 显示全部楼层 |阅读模式
帖子完整标题:黑暗之日 The.Great.Darkened.Days.2018.FRENCH.1080p.BluRay.x264.DD5.1-EA 12.85GB




◎译  名 黑暗之日/The Great Darkened Days
◎片  名 La Grande Noirceur
◎年  代 2018
◎产  地 加拿大
◎类  别 剧情 / 历史
◎语  言 法语,英语
◎上映日期 2018-09-08(多伦多电影节)
◎片  长 95分钟
◎导  演 马克西姆·吉洛 Maxime Giroux
◎编  剧 马克西姆·吉洛 Maxime Giroux
◎主  演 莎拉·加顿 Sarah Gadon
       科迪·费恩 Cody Fern
       卢泽·特沃斯基 Luzer Twersky
       罗曼·杜里斯 Romain Duris
       勒达·卡代布 Reda Kateb
       巴迪·杜瑞斯 Buddy Duress
       斯蒂芬妮·索科琳斯基 Stéphanie Sokolinski
       利斯·罗伊 Lise Roy

◎标  签 美国 | 外语片 | 文艺 | P-TokyoA入围主竞赛 | Historical | Canada

◎简  介

  While a world war rages, Philippe, a draft-dodger from Quebec, takes refuge in the American West, surviving by competing in Charlie Chaplin impersonation contests. As Philippe makes his long journey home, he encounters various characters under the sway of a destructive madness borne of the chaotic times. His voyage, both violent and fascinating, is a hallucinatory initiation to the darker side of the American dream.

◎获奖情况

  第31届东京国际电影节 ?(2018)
  主竞赛单元最佳影片(提名) 马克西姆·吉洛
Video
ID                                       : 1
Format                                   : AVC
Format/Info                              : Advanced Video Codec
Format settings                          : CABAC / 5 Ref Frames
Format settings, CABAC                   : Yes
Format settings, Reference frames        : 5 frames
Codec ID                                 : V_MPEG4/ISO/AVC
Duration                                 : 1 h 34 min
Bit rate                                 : 19.0 Mb/s
Width                                    : 1 480 pixels
Height                                   : 1 080 pixels
Display aspect ratio                     : 1.370
Frame rate mode                          : Constant
Frame rate                               : 24.000 FPS
Color space                              : YUV
Chroma subsampling                       : 4:2:0
Bit depth                                : 8 bits
Scan type                                : Progressive
Bits/(Pixel*Frame)                       : 0.495
Stream size                              : 12.5 GiB (98%)
Title                                    : -EA
Writing library                          : x264 core 159 r2991+49 524a90c t_mod_New
Encoding settings                        : cabac=1 / ref=5 / deblock=1:-3:-3 / analyse=0x3:0x133 / me=umh / subme=10 / psy=1 / fade_compensate=0.00 / psy_rd=1.03:0.00 / mixed_ref=1 / me_range=32 / chroma_me=1 / trellis=2 / 8x8dct=1 / cqm=0 / deadzone=21,11 / fast_pskip=0 / chroma_qp_offset=-2 / threads=18 / lookahead_threads=4 / sliced_threads=0 / nr=0 / decimate=0 / interlaced=0 / bluray_compat=0 / constrained_intra=0 / fgo=0 / bframes=10 / b_pyramid=2 / b_adapt=2 / b_bias=0 / direct=3 / weightb=1 / open_gop=0 / weightp=2 / keyint=240 / keyint_min=24 / scenecut=40 / intra_refresh=0 / rc_lookahead=60 / rc=crf / mbtree=0 / crf=17.0500 / qcomp=0.65 / qpmin=0:0:0 / qpmax=69:69:69 / qpstep=4 / vbv_maxrate=62500 / vbv_bufsize=78125 / crf_max=0.0 / nal_hrd=none / filler=0 / ip_ratio=1.30 / pb_ratio=1.20 / aq=3:0.85 / aq-sensitivity=10.00 / aq-factor=1.00:1.00:1.00 / aq2=0 / aq3=0 / zones=0,1415,crf=23/1416,6523,crf=15.8/17846,18756,crf=15.8/43023,44818,crf=15.8/46800,105968,crf=15.8/121956,125022,crf=15.8/131965,136175,crf=24
Language                                 : French
Default                                  : Yes
Forced                                   : No
Color range                              : Limited
Color primaries                          : BT.709
Transfer characteristics                 : BT.709
Matrix coefficients                      : BT.709

Audio
ID                                       : 2
Format                                   : AC-3
Format/Info                              : Audio Coding 3
Commercial name                          : Dolby Digital
Codec ID                                 : A_AC3
Duration                                 : 1 h 34 min
Bit rate mode                            : Constant
Bit rate                                 : 448 kb/s
Channel(s)                               : 6 channels
Channel layout                           : L R C LFE Ls Rs
Sampling rate                            : 48.0 kHz
Frame rate                               : 31.250 FPS (1536 SPF)
Compression mode                         : Lossy
Stream size                              : 303 MiB (2%)
Language                                 : French
Service kind                             : Complete Main
Default                                  : Yes
Forced                                   : No

Text #1
ID                                       : 3
Format                                   : UTF-8
Codec ID                                 : S_TEXT/UTF8
Codec ID/Info                            : UTF-8 Plain Text
Duration                                 : 56 min 32 s
Bit rate                                 : 15 b/s
Count of elements                        : 214
Stream size                              : 6.55 KiB (0%)
Title                                    : srt
Language                                 : English
Default                                  : Yes
Forced                                   : Yes

Text #2
ID                                       : 4
Format                                   : PGS
Muxing mode                              : zlib
Codec ID                                 : S_HDMV/PGS
Codec ID/Info                            : Picture based subtitle format used on BDs/HD-DVDs
Duration                                 : 1 h 12 min
Bit rate                                 : 5 336 b/s
Count of elements                        : 429
Stream size                              : 2.76 MiB (0%)
Title                                    : sup
Language                                 : English
Default                                  : No
Forced                                   : No

Text #3
ID                                       : 5
Format                                   : PGS
Muxing mode                              : zlib
Codec ID                                 : S_HDMV/PGS
Codec ID/Info                            : Picture based subtitle format used on BDs/HD-DVDs
Duration                                 : 1 h 25 min
Bit rate                                 : 5 507 b/s
Count of elements                        : 573
Stream size                              : 3.38 MiB (0%)
Title                                    : sup
Language                                 : French
Default                                  : No
Forced                                   : No

Text #4
ID                                       : 6
Format                                   : PGS
Muxing mode                              : zlib
Codec ID                                 : S_HDMV/PGS
Codec ID/Info                            : Picture based subtitle format used on BDs/HD-DVDs
Duration                                 : 1 h 32 min
Bit rate                                 : 12.7 kb/s
Count of elements                        : 1589
Stream size                              : 8.43 MiB (0%)
Title                                    : sup HoH
Language                                 : French
Default                                  : No
Forced                                   : No

Menu
00:00:00.000                             : :Chapter 01
00:08:00.000                             : :Chapter 02
00:16:00.000                             : :Chapter 03
00:23:59.958                             : :Chapter 04
00:32:00.000                             : :Chapter 05
00:40:00.000                             : :Chapter 06
00:47:59.958                             : :Chapter 07
00:56:00.000                             : :Chapter 08
01:03:59.958                             : :Chapter 09
01:12:00.000                             : :Chapter 10
01:20:00.000                             : :Chapter 11
01:27:59.958                             : :Chapter 12
01:34:32.083                             : :Chapter 13




                                                                                                                                                                                                        
                                                                                                                                                                                                                                             
c1c28d6e5054c0878d0bd953324f1aaa.zip (65.74 KB, 下载次数: 0)

回复

使用道具 举报

小黑屋|百度云资源论坛 |网站地图

本网站所有资源来自网络,如无意中侵犯了您的权益,请发邮件至 [email protected],立即清除相关链接

GMT+8, 2020-10-28 02:20 , Processed in 0.112951 second(s), 23 queries .

Powered by Discuz! X3.2

© 2001-2013 Comsenz Inc.

快速回复 返回顶部 返回列表