百度云资源论坛

 找回密码
 立即注册
搜索

[BD-4K] 第九区/D-9异形禁区 District.9.2009.2160p.BluRay.x265.10bit.SDR.DTS-HD....

[复制链接]
百度云电影 发表于 2020-10-13 10:02:58 | 显示全部楼层 |阅读模式
帖子完整标题:第九区/D-9异形禁区 District.9.2009.2160p.BluRay.x265.10bit.SDR.DTS-HD.MA.TrueHD.7.1.Atmos-SWTYBLZ 39.66GB




◎译  名 第九区/D-9异形禁区(港)/第9区/第九禁区(台)
◎片  名 District 9
◎年  代 2009
◎产  地 美国,新西兰,加拿大,南非
◎类  别 剧情 / 动作 / 科幻 / 惊悚
◎语  言 英语,尼扬贾语,南非荷兰语,祖鲁语,科萨语,塞索托语
◎上映日期 2009-08-14(美国) / 2009-11-27(中国大陆)
◎片  长 112分钟
◎导  演 尼尔·布洛姆坎普 Neill Blomkamp
◎编  剧 尼尔·布洛姆坎普 Neill Blomkamp / 特丽·塔歇尔 Terri Tatchell
◎主  演 沙尔托·科普雷 Sharlto Copley
       詹森·库伯 Jason Cope
       娜塔莉·博尔特 Nathalie Boltt
       茜尔雯·斯特赖克 Sylvaine Strike
       约翰·萨莫尔 John Sumner
       威廉·艾伦·扬 William Allen Young
       尼克·布雷克 Nick Blake
       杰德·布罗菲 Jed Brophy
       路易斯·米纳尔 Louis Minnaar
       瓦妮莎·海伍德 Vanessa Haywood
       玛丽安·胡曼 Marian Hooman
       维多利奥·莱奥纳迪 Vittorio Leonardi
       曼德拉·加杜卡 Mandla Gaduka
       约翰·范·肖尔 Johan van Schoor
       斯特拉·斯廷坎普 Stella Steenkamp
       戴维·詹姆斯 David James
       肯尼思·恩科西 Kenneth Nkosi
       蒂姆·戈登 Tim Gordon
       莫尔内·埃拉斯姆斯 Morne Erasmus
       尤金·孔巴尼瓦 Eugene Khumbanyiwa
       赫棱基维·马德拉拉 Hlengiwe Madlala
       西雅邦加·拉德贝 Siyabonga Radebe
       梅尔特·西贝尔哈亨 Melt Sieberhagen
       安德勒·奥登达尔 Andre Odendaal
       尼克·伯莱尼 Nick Boraine
       罗伯特·霍布斯 Robert Hobbs
       Barry Strydom
       Mzwandile Nqoba
       西莫·莫加瓦扎 Simo Mogwaza
       伊丽莎白玛坎达维 Elizabeth Mkandawie
       格雷格·梅尔维尔-史密斯 Greg Melvill-Smith
       Morena Busa Sesatsa
       Themba Nkosi
       大卫·杜卡斯 David Dukas

◎标  签 科幻 | 人性 | 美国 | 第九区 | 种族 | 讽刺 | 反思 | 2009

◎简  介

  1990年,一艘巨大的飞船出现在地球上空,人们惶恐不安,却又分外好奇。经过一段时间紧张的等待,外星飞船始终没有动静。人类终于小心翼翼靠近它,强行走进舱内,结果发现了不计其数的外星人。他们形容丑陋,宛如虾子,而且健康状况极差,虚弱无力。原来这是一群来自外星的难民,他们最终被地球人接纳,并隔离在南非约翰内斯堡的一片区域内生活,此地名为“第九区”。经过长达20年的繁衍,外星难民的数量扩张至180万之多,且和周边人类的矛盾冲突不断,越来越多的人类呼吁将“大虾”赶出地球。
  
  MNU(列国同盟组织)经过磋商,决定将外星难民迁移到更为偏远的区域。MNU外星事务部门的特工威库斯(Sharlto Copley 饰)专门负责搬迁工作。威库斯在动员过程中傲慢随意,与当地居民冲突频频。最终,他为自己的行为付出代价,外星人的神秘流体将其感染,威库斯慢慢变成了外星人的模样……

◎获奖情况

  第82届奥斯卡金像奖 ?(2010)
  最佳影片(提名) 卡罗琳·康宁安?/?彼得·杰克逊
  最佳改编剧本(提名) 尼尔·布洛姆坎普?/?特丽·塔歇尔
  最佳剪辑(提名) 祖利安·格克
  最佳视觉效果(提名) 丹·考夫曼?/?彼得·迈泽尔斯?/?罗伯特·哈布罗斯?/?马特·艾特肯
  
  第67届金球奖 ?(2010)
  电影类最佳编剧(提名) 尼尔·布洛姆坎普?/?特丽·塔歇尔
  
  第19届MTV电影奖 ?(2010)
  MTV电影奖最佳惊恐戏表演(提名) 沙尔托·科普雷
  
  第22届芝加哥影评人协会奖 ?(2009)
  最具潜力演员(提名) 沙尔托·科普雷
  最具潜力导演 尼尔·布洛姆坎普
  
  第43届堪萨斯影评人协会奖 ?(2010)
  最佳科幻/恐怖片
  
  第9届凤凰城影评人协会奖 ?(2009)
  最佳新人导演 尼尔·布洛姆坎普
  
  第12届美国青少年选择奖 ?(2010)
  最佳科幻电影(提名)
  最佳科幻电影男演员(提名) 沙尔托·科普雷
[quote]Video
ID                                       : 1
Format                                   : HEVC
Format/Info                              : High Efficiency Video Coding
Codec ID                                 : V_MPEGH/ISO/HEVC
Duration                                 : 1 h 52 min
Bit rate                                 : 41.6 Mb/s
Width                                    : 3 840 pixels
Height                                   : 2 076 pixels
Display aspect ratio                     : 1.85:1
Frame rate mode                          : Constant
Frame rate                               : 23.976 (24000/1001/189150) FPS
Color space                              : YUV
Chroma subsampling                       : 4:2:0
Bit depth                                : 10 bits
Bits/(Pixel*Frame)                       : 0.218
Stream size                              : 32.6 GiB (83%)
Title                                    : District.9.2009.2160p.BluRay.x265.10bit.SDR.DTS-HD.MA.TrueHD.7.1.Atmos-SWTYBLZ
Writing library                          : x265 3.0ed72af837053:[Windows][GCC 8.2.0][64 bit] 10bit
Encoding settings                        : cpuid=1111039 / frame-threads=6 / numa-pools=40 / wpp / no-pmode / no-pme / no-psnr / no-ssim / log-level=2 / input-csp=1 / input-res=3840x2076 / interlace=0 / total-frames=161496 / level-idc=51 / high-tier=1 / uhd-bd=0 / ref=3 / no-allow-non-conformance / repeat-headers / annexb / aud / hrd / info / hash=0 / no-temporal-layers / no-open-gop / min-keyint=1 / keyint=24 / gop-lookahead=0 / bframes=4 / b-adapt=2 / b-pyramid / bframe-bias=0 / rc-lookahead=25 / lookahead-slices=4 / scenecut=40 / radl=0 / no-splice / no-intra-refresh / ctu=64 / min-cu-size=8 / no-rect / no-amp / max-tu-size=32 / tu-inter-depth=1 / tu-intra-depth=1 / limit-tu=0 / rdoq-level=0 / dynamic-rd=0.00 / no-ssim-rd / signhide / no-tskip / nr-intra=0 / nr-inter=0 / no-constrained-intra / strong-intra-smoothing / max-merge=2 / limit-refs=3 / no-limit-modes / me=1 / subme=2 / merange=57 / temporal-mvp / weightp / no-weightb / no-analyze-src-pics / deblock=0:0 / no-sao / no-sao-non-deblock / rd=3 / no-early-skip / rskip / no-fast-intra / no-tskip-fast / no-cu-lossless / no-b-intra / no-splitrd-skip / rdpenalty=0 / psy-rd=2.00 / psy-rdoq=0.00 / no-rd-refine / no-lossless / cbqpoffs=0 / crqpoffs=0 / rc=crf / crf=16.0 / qcomp=0.60 / qpstep=4 / stats-write=0 / stats-read=0 / vbv-maxrate=160000 / vbv-bufsize=160000 / vbv-init=0.9 / crf-max=0.0 / crf-min=0.0 / ipratio=1.40 / pbratio=1.30 / aq-mode=1 / aq-strength=1.00 / cutree / zone-count=0 / no-strict-cbr / qg-size=32 / no-rc-grain / qpmax=69 / qpmin=0 / no-const-vbv / sar=1 / overscan=0 / videoformat=5 / range=0 / colorprim=2 / transfer=2 / colormatrix=2 / chromaloc=0 / display-window=0 / max-cll=0,0 / min-luma=0 / max-luma=1023 / log2-max-poc-lsb=8 / vui-timing-info / vui-hrd-info / slices=1 / opt-qp-pps / opt-ref-list-length-pps / no-multi-pass-opt-rps / scenecut-bias=0.05 / no-opt-cu-delta-qp / no-aq-motion / no-hdr / no-hdr-opt / no-dhdr10-opt / no-idr-recovery-sei / analysis-reuse-level=5 / scale-factor=0 / refine-intra=0 / refine-inter=0 / refine-mv=0 / refine-ctu-distortion=0 / no-limit-sao / ctu-info=0 / no-lowpass-dct / refine-analysis-type=0 / copy-pic=1 / max-ausize-factor=1.0 / no-dynamic-refine / no-single-sei / no-hevc-aq / qp-adaptation-range=1.00
Language                                 : English
Default                                  : Yes
Forced                                   : No

Audio #1
ID                                       : 2
ID in the original source medium         : 4352 (0x1100)
Format                                   : MLP FBA 16-ch
Format/Info                              : Meridian Lossless Packing FBA with 16-channel presentation
Commercial name                          : Dolby TrueHD with Dolby Atmos
Codec ID                                 : A_TRUEHD
Duration                                 : 1 h 52 min
Bit rate mode                            : Variable
Bit rate                                 : 3 442 kb/s
Maximum bit rate                         : 5 568 kb/s
Channel(s)                               : 8 channels
Channel layout                           : L R C LFE Ls Rs Lb Rb
Sampling rate                            : 48.0 kHz
Frame rate                               : 1 200.000 FPS (40 SPF)
Compression mode                         : Lossless
Stream size                              : 2.70 GiB (7%)
Title                                    : District.9.2009.2160p.BluRay.x265.10bit.SDR.DTS-HD.MA.TrueHD.7.1.Atmos-SWTYBLZ
Language                                 : English
Default                                  : Yes
Forced                                   : No
Original source medium                   : Blu-ray
Number of dynamic objects                : 11
Bed channel count                        : 1 channel
Bed channel configuration                : LFE

Audio #2
ID                                       : 3
Format                                   : DTS XLL
Format/Info                              : Digital Theater Systems
Commercial name                          : DTS-HD Master Audio
Codec ID                                 : A_DTS
Duration                                 : 1 h 52 min
Bit rate mode                            : Variable
Bit rate                                 : 4 094 kb/s
Channel(s)                               : 8 channels
Channel layout                           : C L R LFE Lb Rb Lss Rss
Sampling rate                            : 48.0 kHz
Frame rate                               : 93.750 FPS (512 SPF)
Bit depth                                : 24 bits
Compression mode                         : Lossless
Stream size                              : 3.21 GiB (8%)
Title                                    : District.9.2009.2160p.BluRay.x265.10bit.SDR.DTS-HD.MA.TrueHD.7.1.Atmos-SWTYBLZ
Language                                 : English
Default                                  : No
Forced                                   : No

Audio #3
ID                                       : 4
ID in the original source medium         : 4352 (0x1100)
Format                                   : AC-3
Format/Info                              : Audio Coding 3
Commercial name                          : Dolby Digital
Codec ID                                 : A_AC3
Duration                                 : 1 h 52 min
Bit rate mode                            : Constant
Bit rate                                 : 640 kb/s
Channel(s)                               : 6 channels
Channel layout                           : L R C LFE Ls Rs
Sampling rate                            : 48.0 kHz
Frame rate                               : 31.250 FPS (1536 SPF)
Compression mode                         : Lossy
Stream size                              : 514 MiB (1%)
Title                                    : District.9.2009.2160p.BluRay.x265.10bit.SDR.DTS-HD.MA.TrueHD.7.1.Atmos-SWTYBLZ
Language                                 : English
Service kind                             : Complete Main
Default                                  : No
Forced                                   : No
Original source medium                   : Blu-ray

Text #1
ID                                       : 5
Format                                   : UTF-8
Codec ID                                 : S_TEXT/UTF8
Codec ID/Info                            : UTF-8 Plain Text
Duration                                 : 1 h 43 min
Bit rate                                 : 62 b/s
Count of elements                        : 1201
Stream size                              : 47.5 KiB (0%)
Title                                    : English-SRT
Language                                 : English
Default                                  : Yes
Forced                                   : No

Text #2
ID                                       : 6
ID in the original source medium         : 4768 (0x12A0)
Format                                   : PGS
Muxing mode                              : zlib
Codec ID                                 : S_HDMV/PGS
Codec ID/Info                            : Picture based subtitle format used on BDs/HD-DVDs
Duration                                 : 1 h 48 min
Bit rate                                 : 43.6 kb/s
Count of elements                        : 3136
Stream size                              : 33.9 MiB (0%)
Title                                    : English-SDH-PGS
Language                                 : English
Default                                  : No
Forced                                   : No
Original source medium                   : Blu-ray

Text #3
ID                                       : 7
ID in the original source medium         : 4769 (0x12A1)
Format                                   : PGS
Muxing mode                              : zlib
Codec ID                                 : S_HDMV/PGS
Codec ID/Info                            : Picture based subtitle format used on BDs/HD-DVDs
Duration                                 : 1 h 43 min
Bit rate                                 : 36.3 kb/s
Count of elements                        : 2408
Stream size                              : 27.0 MiB (0%)
Title                                    : English-PGS
Language                                 : English
Default                                  : No
Forced                                   : No
Original source medium                   : Blu-ray

Text #4
ID                                       : 8
ID in the original source medium         : 4770 (0x12A2)
Format                                   : PGS
Muxing mode                              : zlib
Codec ID                                 : S_HDMV/PGS
Codec ID/Info                            : Picture based subtitle format used on BDs/HD-DVDs
Duration                                 : 1 h 48 min
Bit rate                                 : 43.6 kb/s
Count of elements                        : 3136
Stream size                              : 33.9 MiB (0%)
Title                                    : English-SDH-PGS
Language                                 : English
Default                                  : No
Forced                                   : No
Original source medium                   : Blu-ray

Text #5
ID                                       : 9
ID in the original source medium         : 4771 (0x12A3)
Format                                   : PGS
Muxing mode                              : zlib
Codec ID                                 : S_HDMV/PGS
Codec ID/Info                            : Picture based subtitle format used on BDs/HD-DVDs
Duration                                 : 1 h 43 min
Bit rate                                 : 36.3 kb/s
Count of elements                        : 2408
Stream size                              : 27.0 MiB (0%)
Title                                    : English-PGS
Language                                 : English
Default                                  : No
Forced                                   : No
Original source medium                   : Blu-ray

Text #6
ID                                       : 10
ID in the original source medium         : 4772 (0x12A4)
Format                                   : PGS
Muxing mode                              : zlib
Codec ID                                 : S_HDMV/PGS
Codec ID/Info                            : Picture based subtitle format used on BDs/HD-DVDs
Duration                                 : 1 h 43 min
Bit rate                                 : 19.8 kb/s
Count of elements                        : 2793
Stream size                              : 14.7 MiB (0%)
Title                                    : Arabic-PGS
Language                                 : Arabic
Default                                  : No
Forced                                   : No
Original source medium                   : Blu-ray

Text #7
ID                                       : 11
ID in the original source medium         : 4773 (0x12A5)
Format                                   : PGS
Muxing mode                              : zlib
Codec ID                                 : S_HDMV/PGS
Codec ID/Info                            : Picture based subtitle format used on BDs/HD-DVDs
Duration                                 : 1 h 43 min
Bit rate                                 : 36.7 kb/s
Count of elements                        : 2958
Stream size                              : 27.2 MiB (0%)
Title                                    : Chinese-PGS
Language                                 : Chinese
Default                                  : No
Forced                                   : No
Original source medium                   : Blu-ray

Text #8
ID                                       : 12
ID in the original source medium         : 4774 (0x12A6)
Format                                   : PGS
Muxing mode                              : zlib
Codec ID                                 : S_HDMV/PGS
Codec ID/Info                            : Picture based subtitle format used on BDs/HD-DVDs
Duration                                 : 1 h 43 min
Bit rate                                 : 36.3 kb/s
Count of elements                        : 2958
Stream size                              : 27.0 MiB (0%)
Title                                    : Chinese-PGS
Language                                 : Chinese
Default                                  : No
Forced                                   : No
Original source medium                   : Blu-ray

Text #9
ID                                       : 13
ID in the original source medium         : 4775 (0x12A7)
Format                                   : PGS
Muxing mode                              : zlib
Codec ID                                 : S_HDMV/PGS
Codec ID/Info                            : Picture based subtitle format used on BDs/HD-DVDs
Duration                                 : 1 h 51 min
Bit rate                                 : 34.3 kb/s
Count of elements                        : 3362
Stream size                              : 27.4 MiB (0%)
Title                                    : Czech-PGS
Language                                 : Czech
Default                                  : No
Forced                                   : No
Original source medium                   : Blu-ray

Text #10
ID                                       : 14
ID in the original source medium         : 4776 (0x12A8)
Format                                   : PGS
Muxing mode                              : zlib
Codec ID                                 : S_HDMV/PGS
Codec ID/Info                            : Picture based subtitle format used on BDs/HD-DVDs
Duration                                 : 1 h 51 min
Bit rate                                 : 33.8 kb/s
Count of elements                        : 2944
Stream size                              : 27.0 MiB (0%)
Title                                    : Danish-PGS
Language                                 : Danish
Default                                  : No
Forced                                   : No
Original source medium                   : Blu-ray

Text #11
ID                                       : 15
ID in the original source medium         : 4777 (0x12A9)
Format                                   : PGS
Muxing mode                              : zlib
Codec ID                                 : S_HDMV/PGS
Codec ID/Info                            : Picture based subtitle format used on BDs/HD-DVDs
Duration                                 : 1 h 43 min
Bit rate                                 : 34.4 kb/s
Count of elements                        : 2768
Stream size                              : 25.6 MiB (0%)
Title                                    : Dutch-PGS
Language                                 : Dutch
Default                                  : No
Forced                                   : No
Original source medium                   : Blu-ray

Text #12
ID                                       : 16
ID in the original source medium         : 4778 (0x12AA)
Format                                   : PGS
Muxing mode                              : zlib
Codec ID                                 : S_HDMV/PGS
Codec ID/Info                            : Picture based subtitle format used on BDs/HD-DVDs
Duration                                 : 1 h 43 min
Bit rate                                 : 36.2 kb/s
Count of elements                        : 2590
Stream size                              : 26.9 MiB (0%)
Title                                    : Estonian-PGS
Language                                 : Estonian
Default                                  : No
Forced                                   : No
Original source medium                   : Blu-ray

Text #13
ID                                       : 17
ID in the original source medium         : 4779 (0x12AB)
Format                                   : PGS
Muxing mode                              : zlib
Codec ID                                 : S_HDMV/PGS
Codec ID/Info                            : Picture based subtitle format used on BDs/HD-DVDs
Duration                                 : 1 h 51 min
Bit rate                                 : 34.8 kb/s
Count of elements                        : 3032
Stream size                              : 27.7 MiB (0%)
Title                                    : Finnish-PGS
Language                                 : Finnish
Default                                  : No
Forced                                   : No
Original source medium                   : Blu-ray

Text #14
ID                                       : 18
ID in the original source medium         : 4780 (0x12AC)
Format                                   : PGS
Muxing mode                              : zlib
Codec ID                                 : S_HDMV/PGS
Codec ID/Info                            : Picture based subtitle format used on BDs/HD-DVDs
Duration                                 : 1 h 51 min
Bit rate                                 : 34.8 kb/s
Count of elements                        : 2924
Stream size                              : 27.7 MiB (0%)
Title                                    : French-PGS
Language                                 : French
Default                                  : No
Forced                                   : No
Original source medium                   : Blu-ray

Text #15
ID                                       : 19
ID in the original source medium         : 4781 (0x12AD)
Format                                   : PGS
Muxing mode                              : zlib
Codec ID                                 : S_HDMV/PGS
Codec ID/Info                            : Picture based subtitle format used on BDs/HD-DVDs
Duration                                 : 1 h 43 min
Bit rate                                 : 49.1 kb/s
Count of elements                        : 3154
Stream size                              : 36.4 MiB (0%)
Title                                    : German-PGS
Language                                 : German
Default                                  : No
Forced                                   : No
Original source medium                   : Blu-ray

Text #16
ID                                       : 20
ID in the original source medium         : 4782 (0x12AE)
Format                                   : PGS
Muxing mode                              : zlib
Codec ID                                 : S_HDMV/PGS
Codec ID/Info                            : Picture based subtitle format used on BDs/HD-DVDs
Duration                                 : 1 h 44 min
Bit rate                                 : 35.2 kb/s
Count of elements                        : 2644
Stream size                              : 26.2 MiB (0%)
Title                                    : Greek-PGS
Language                                 : Greek
Default                                  : No
Forced                                   : No
Original source medium                   : Blu-ray

Text #17
ID                                       : 21
ID in the original source medium         : 4783 (0x12AF)
Format                                   : PGS
Muxing mode                              : zlib
Codec ID                                 : S_HDMV/PGS
Codec ID/Info                            : Picture based subtitle format used on BDs/HD-DVDs
Duration                                 : 1 h 43 min
Bit rate                                 : 32.2 kb/s
Count of elements                        : 2958
Stream size                              : 23.9 MiB (0%)
Title                                    : Hindi-PGS
Language                                 : Hindi
Default                                  : No
Forced                                   : No
Original source medium                   : Blu-ray

Text #18
ID                                       : 22
ID in the original source medium         : 4784 (0x12B0)
Format                                   : PGS
Muxing mode                              : zlib
Codec ID                                 : S_HDMV/PGS
Codec ID/Info                            : Picture based subtitle format used on BDs/HD-DVDs
Duration                                 : 1 h 51 min
Bit rate                                 : 36.9 kb/s
Count of elements                        : 3076
Stream size                              : 29.4 MiB (0%)
Title                                    : Hungarian-PGS
Language                                 : Hungarian
Default

回复

使用道具 举报

小黑屋|百度云资源论坛 |网站地图

本网站所有资源来自网络,如无意中侵犯了您的权益,请发邮件至 [email protected],立即清除相关链接

GMT+8, 2020-10-23 04:23 , Processed in 0.120723 second(s), 20 queries .

Powered by Discuz! X3.2

© 2001-2013 Comsenz Inc.

快速回复 返回顶部 返回列表