百度云资源论坛

 找回密码
 立即注册
搜索

[BD-4K] 自然之力/飓风守护 Force.of.Nature.2020.EXTENDED.2160p.BluRay.x264.8bi...

[复制链接]
百度云资源 发表于 2020-10-13 10:02:58 | 显示全部楼层 |阅读模式
帖子完整标题:自然之力/飓风守护 Force.of.Nature.2020.EXTENDED.2160p.BluRay.x264.8bit.SDR.DTS-HD.MA.5.1-SWTYBLZ 44.65GB




◎译  名 自然之力/飓风守护
◎片  名 Force of Nature
◎年  代 2020
◎产  地 美国
◎类  别 剧情 / 动作
◎语  言 英语
◎上映日期 2020-06-18(美国)
◎片  长 91分钟
◎导  演 麦克·鲍力施 Michael Polish
◎编  剧 Cory Miller
◎主  演 梅尔·吉布森 Mel Gibson
       凯特·波茨沃斯 Kate Bosworth
       埃米尔·赫斯基 Emile Hirsch
       大卫·札亚斯 David Zayas
       斯蒂芬妮·卡约 Stephanie Cayo
       泰勒·乔恩·奥尔森 Tyler Jon Olson
       斯温·特梅尔 Swen Temmel
       雷·埃尔南德斯 Rey Hernandez
       杰西·麦金尼 Jesy McKinney

◎标  签 犯罪 | 梅尔·吉布森 | 动作 | 2020 | 美国 | 飓风 | 美国电影 | 剧情

◎简  介

  梅尔·吉布森、凯特·波茨沃斯出演新片[自然之力](Force Of Nature,暂译)。本片由麦克·鲍力施执导,科里·米勒撰写剧本。本片讲述一名警察在飓风疏散过程中必须保护建筑物内的剩余居民,而犯罪分子则试图在建筑物内实施神秘抢劫。吉布森饰演一位固执的退休侦探,他拒绝疏散,并对出现在他家门口的窃贼进行了反击。
Video
ID                                       : 1
Format                                   : AVC
Format/Info                              : Advanced Video Codec
Format settings                          : CABAC / 5 Ref Frames
Format settings, CABAC                   : Yes
Format settings, Reference frames        : 5 frames
Codec ID                                 : V_MPEG4/ISO/AVC
Duration                                 : 1 h 39 min
Bit rate                                 : 59.3 Mb/s
Width                                    : 3 840 pixels
Height                                   : 1 608 pixels
Display aspect ratio                     : 2.40:1
Frame rate mode                          : Constant
Frame rate                               : 23.976 (24000/1001/189150) FPS
Color space                              : YUV
Chroma subsampling                       : 4:2:0
Bit depth                                : 8 bits
Scan type                                : Progressive
Bits/(Pixel*Frame)                       : 0.401
Stream size                              : 41.2 GiB (93%)
Title                                    : Force.of.Nature.2020.EXTENDED.2160p.BluRay.x264.8bit.SDR.DTS-HD.MA.5.1-SWTYBLZ
Writing library                          : x264 core 157 r2935 545de2f
Encoding settings                        : cabac=1 / ref=5 / deblock=1:-1:-1 / analyse=0x3:0x113 / me=umh / subme=10 / psy=1 / psy_rd=1.00:0.15 / mixed_ref=1 / me_range=48 / chroma_me=1 / trellis=2 / 8x8dct=1 / cqm=0 / deadzone=21,11 / fast_pskip=1 / chroma_qp_offset=-3 / threads=48 / lookahead_threads=4 / sliced_threads=0 / nr=0 / decimate=0 / interlaced=0 / bluray_compat=0 / constrained_intra=0 / bframes=3 / b_pyramid=2 / b_adapt=2 / b_bias=0 / direct=3 / weightb=1 / open_gop=0 / weightp=2 / keyint=250 / keyint_min=23 / scenecut=40 / intra_refresh=0 / rc_lookahead=50 / rc=crf / mbtree=1 / crf=18.0 / qcomp=0.60 / qpmin=0 / qpmax=69 / qpstep=4 / ip_ratio=1.40 / aq=1:1.00
Language                                 : English
Default                                  : Yes
Forced                                   : No

Audio #1
ID                                       : 2
ID in the original source medium         : 4353 (0x1101)
Format                                   : DTS XLL
Format/Info                              : Digital Theater Systems
Commercial name                          : DTS-HD Master Audio
Codec ID                                 : A_DTS
Duration                                 : 1 h 39 min
Bit rate mode                            : Variable
Bit rate                                 : 3 963 kb/s
Channel(s)                               : 6 channels
Channel layout                           : C L R Ls Rs LFE
Sampling rate                            : 48.0 kHz
Frame rate                               : 93.750 FPS (512 SPF)
Bit depth                                : 24 bits
Compression mode                         : Lossless
Stream size                              : 2.76 GiB (6%)
Title                                    : Force.of.Nature.2020.EXTENDED.2160p.BluRay.x264.8bit.SDR.DTS-HD.MA.5.1-SWTYBLZ
Language                                 : English
Default                                  : Yes
Forced                                   : No
Original source medium                   : Blu-ray

Audio #2
ID                                       : 3
Format                                   : AC-3
Format/Info                              : Audio Coding 3
Commercial name                          : Dolby Digital
Codec ID                                 : A_AC3
Duration                                 : 1 h 39 min
Bit rate mode                            : Constant
Bit rate                                 : 640 kb/s
Channel(s)                               : 6 channels
Channel layout                           : L R C LFE Ls Rs
Sampling rate                            : 48.0 kHz
Frame rate                               : 31.250 FPS (1536 SPF)
Compression mode                         : Lossy
Stream size                              : 456 MiB (1%)
Title                                    : Force.of.Nature.2020.EXTENDED.2160p.BluRay.x264.8bit.SDR.DTS-HD.MA.5.1-SWTYBLZ
Language                                 : English
Service kind                             : Complete Main
Default                                  : No
Forced                                   : No

Text #1
ID                                       : 4
ID in the original source medium         : 4608 (0x1200)
Format                                   : PGS
Muxing mode                              : zlib
Codec ID                                 : S_HDMV/PGS
Codec ID/Info                            : Picture based subtitle format used on BDs/HD-DVDs
Duration                                 : 1 h 34 min
Bit rate                                 : 37.3 kb/s
Count of elements                        : 2138
Stream size                              : 25.2 MiB (0%)
Title                                    : German-PGS
Language                                 : German
Default                                  : No
Forced                                   : No
Original source medium                   : Blu-ray

Text #2
ID                                       : 5
ID in the original source medium         : 4609 (0x1201)
Format                                   : PGS
Muxing mode                              : zlib
Codec ID                                 : S_HDMV/PGS
Codec ID/Info                            : Picture based subtitle format used on BDs/HD-DVDs
Duration                                 : 51 min 25 s
Bit rate                                 : 203 b/s
Count of elements                        : 8
Stream size                              : 76.7 KiB (0%)
Title                                    : German-FORCED-PGS
Language                                 : German
Default                                  : No
Forced                                   : No
Original source medium                   : Blu-ray

Menu
00:00:00.000                             : en:Chapter 01
00:08:57.828                             : en:Chapter 02
00:15:35.684                             : en:Chapter 03
00:20:44.117                             : en:Chapter 04
00:29:53.291                             : en:Chapter 05
00:39:55.976                             : en:Chapter 06
00:49:15.953                             : en:Chapter 07
00:57:55.054                             : en:Chapter 08
01:07:19.994                             : en:Chapter 09
01:15:46.959                             : en:Chapter 10
01:26:03.491                             : en:Chapter 11
01:33:14.088                             : en:Chapter 12




                                                                                                                                                                                                        


d08940e2b74fcc6ce012421131f7fff6.zip (112.42 KB, 下载次数: 0)

回复

使用道具 举报

小黑屋|百度云资源论坛 |网站地图

本网站所有资源来自网络,如无意中侵犯了您的权益,请发邮件至 [email protected],立即清除相关链接

GMT+8, 2020-10-23 05:03 , Processed in 0.109796 second(s), 23 queries .

Powered by Discuz! X3.2

© 2001-2013 Comsenz Inc.

快速回复 返回顶部 返回列表