百度云资源论坛

 找回密码
 立即注册
搜索

路人女主的养成方法 Fine Saekano.How.to.Raise.A.Boring.Girlfriend.Fin...

[复制链接]
百度云电影 发表于 2020-10-13 09:31:20 | 显示全部楼层 |阅读模式
帖子完整标题:路人女主的养成方法 Fine Saekano.How.to.Raise.A.Boring.Girlfriend.Fine.2019.JAPANESE.1080p.BluRay.x264.FLAC.2.0-OP 7.83GB




◎译  名 路人女主的养成方法 Fine/Saekano: How to Raise a Boring Girlfriend Fine/不起眼女主角培育法 Fine/不起眼女主角培育法 剧场版/路人女主的养成方法 剧场版
◎片  名 冴えない彼女の育てかた Fine
◎年  代 2019
◎产  地 日本
◎类  别 爱情 / 动画
◎语  言 日语
◎上映日期 2019-10-26(日本)
◎片  长 115分钟
◎导  演 柴田彰久 Akihisa Shibata / 龟井干太 Kanta Kamei
◎编  剧 丸户史明 Fumiaki Maruto
◎主  演 松冈祯丞 Yoshitsugu Matsuoka
       安野希世乃 Kiyono Yasuno
       矢作纱友里 Sayuri Yahagi
       赤崎千夏 Chinatsu Akasaki
       柿原彻也 Tetsuya Kakihara
       生天目仁美 Hitomi Nabatame
       桑岛法子 Houko Kuwashima
       田边留依 Rui Tanabe
       铃木绘理 Eri Suzuki
       大地叶 You Taichi
       大西沙织 Saori Oonishi
       茅野爱衣 Ai Kayano

◎标  签 路人女主的养成方法 | 剧场版 | 圣人惠 | 动漫 | 二次元 | 日本 | 日漫 | 动画

◎简  介

  某个春日,安艺伦也在樱花飞舞的坡道上与少女·加藤惠命运般地邂逅,并想着要制作以她为第一女主角的同人游戏。他邀请美术部所属、以同人插画师的身份活动的泽村·斯宾塞·英梨梨,以及学年第一的优等生、身为轻小说作家活跃中的霞之丘诗羽,共同成立了blessing software。并终于发表了第一部作品——。
  
  英梨梨和诗羽为了开发大作游戏《寰域编年纪》而前往人气创作者红坂朱音之处。blessing software的代表伦也继续社团活动,和副代表惠一起开始了新作的开发。他起用在做插画师的学妹·波岛出海,向身为制作人的出海之兄·伊织发出委托,和冰堂美智留及其乐队icy tail一同推进着新作的开发,然而……。
  
  英梨梨和诗羽的大作会变得如何?伦也和惠的关系发生异变?blessing software的新作究竟会走向何方?
  
  围绕着不起眼女主角的青春涂鸦,迎来终幕。
Video
ID                                       : 1
Format                                   : AVC
Format/Info                              : Advanced Video Codec
Format settings                          : CABAC / 4 Ref Frames
Format settings, CABAC                   : Yes
Format settings, Reference frames        : 4 frames
Codec ID                                 : V_MPEG4/ISO/AVC
Duration                                 : 1 h 54 min
Bit rate                                 : 9 232 kb/s
Width                                    : 1 920 pixels
Height                                   : 1 080 pixels
Display aspect ratio                     : 16:9
Frame rate mode                          : Constant
Frame rate                               : 23.976 (24000/1001/189150) FPS
Color space                              : YUV
Chroma subsampling                       : 4:2:0
Bit depth                                : 8 bits
Scan type                                : Progressive
Bits/(Pixel*Frame)                       : 0.186
Stream size                              : 7.40 GiB (95%)
Writing library                          : x264 core 157 r2935 545de2f
Encoding settings                        : cabac=1 / ref=4 / deblock=1:-1:-1 / analyse=0x3:0x133 / me=umh / subme=7 / psy=1 / psy_rd=1.00:0.00 / mixed_ref=1 / me_range=16 / chroma_me=1 / trellis=2 / 8x8dct=1 / cqm=0 / deadzone=21,11 / fast_pskip=1 / chroma_qp_offset=-2 / threads=12 / lookahead_threads=2 / sliced_threads=0 / nr=0 / decimate=1 / interlaced=0 / bluray_compat=0 / constrained_intra=0 / bframes=8 / b_pyramid=2 / b_adapt=1 / b_bias=0 / direct=1 / weightb=1 / open_gop=0 / weightp=1 / keyint=240 / keyint_min=24 / scenecut=40 / intra_refresh=0 / rc_lookahead=30 / rc=2pass / mbtree=1 / bitrate=9232 / ratetol=1.0 / qcomp=0.60 / qpmin=0 / qpmax=69 / qpstep=4 / cplxblur=20.0 / qblur=0.5 / ip_ratio=1.40 / aq=1:1.00
Default                                  : Yes
Forced                                   : No
Color range                              : Limited
Color primaries                          : BT.709
Transfer characteristics                 : BT.709
Matrix coefficients                      : BT.709

Audio
ID                                       : 2
Format                                   : FLAC
Format/Info                              : Free Lossless Audio Codec
Codec ID                                 : A_FLAC
Duration                                 : 1 h 54 min
Bit rate mode                            : Variable
Bit rate                                 : 527 kb/s
Channel(s)                               : 2 channels
Channel layout                           : L R
Sampling rate                            : 48.0 kHz
Frame rate                               : 10.417 FPS (4608 SPF)
Bit depth                                : 16 bits
Compression mode                         : Lossless
Stream size                              : 433 MiB (5%)
Title                                    : Main Dialogue
Language                                 : Japanese
Default                                  : Yes
Forced                                   : No

Text
ID                                       : 3
Format                                   : UTF-8
Codec ID                                 : S_TEXT/UTF8
Codec ID/Info                            : UTF-8 Plain Text
Duration                                 : 1 h 52 min
Bit rate                                 : 79 b/s
Count of elements                        : 1783
Stream size                              : 65.6 KiB (0%)
Language                                 : English
Default                                  : Yes
Forced                                   : No

Menu
00:00:00.000                             : :Chapter 1
00:00:14.014                             : :Chapter 2
00:12:36.214                             : :Chapter 3
00:16:59.936                             : :Chapter 4
00:23:45.925                             : :Chapter 5
00:31:37.604                             : :Chapter 6
00:40:00.398                             : :Chapter 7
00:45:20.760                             : :Chapter 8
00:51:50.566                             : :Chapter 9
00:57:58.767                             : :Chapter 10
01:04:25.111                             : :Chapter 11
01:11:39.796                             : :Chapter 12
01:17:23.097                             : :Chapter 13
01:24:40.951                             : :Chapter 14
01:37:49.322                             : :Chapter 15
01:44:09.744                             : :Chapter 16




                                                                                                                                                                                                        
                                                                                                                                                                                                                                                                                                                                                                                                                                                                                    
19c3d54759323ddeba83390747390854.zip (40.71 KB, 下载次数: 0)

回复

使用道具 举报

小黑屋|百度云资源论坛 |网站地图

本网站所有资源来自网络,如无意中侵犯了您的权益,请发邮件至 aa6[email protected],立即清除相关链接

GMT+8, 2020-10-28 02:26 , Processed in 0.115997 second(s), 23 queries .

Powered by Discuz! X3.2

© 2001-2013 Comsenz Inc.

快速回复 返回顶部 返回列表