百度云资源论坛

 找回密码
 立即注册
搜索

数码宝贝:最后的进化 Digimon.Adventure.Last.Evolution.Kizuna.2020.JAP...

[复制链接]
百度云资源 发表于 2020-10-13 09:31:20 | 显示全部楼层 |阅读模式
帖子完整标题:数码宝贝:最后的进化 Digimon.Adventure.Last.Evolution.Kizuna.2020.JAPANESE.1080p.BluRay.x264.DTS-iKiW 9.98GB




◎译  名 数码宝贝:最后的进化/Digimon Adventure: Last Evolution Kizuna/数码宝贝大冒险:最后的进化·羁绊/数码宝贝大冒险剧场版
◎片  名 デジモンアドベンチャー LAST EVOLUTION 絆
◎年  代 2020
◎产  地 日本
◎类  别 动画 / 冒险
◎语  言 日语
◎上映日期 2020-02-21(日本) / 2020-10-30(中国大陆)
◎IMDb评分  7.7/10 from 517 users
◎片  长 94分钟
◎导  演 田口智久 Tomohisa Taguchi
◎编  剧 大和屋晓 Akatsuki Yamatoya
◎主  演 花江夏树 Natsuki Hanae
       细谷佳正 Yoshimasa Hosoya
       三森铃子 Suzuko Mimori
       田村睦心 Mutsumi Tamura
       吉田仁美 Hitomi Yoshida
       池田纯矢 Jun Ikeda
       榎木淳弥 Junya Enoki
       市道真央 Mao Ichimichi
       坂本千夏 Chika Sakamoto
       山口真弓 Mayumi Yamaguchi
       重松花鸟 Atori Shigematsu
       山田木野子 Shihomi Mizowaki
       竹内顺子 Junko Takeuchi
       樱井孝宏 Takahiro Sakurai
       松本美和 Miwa Matsumoto
       德光由禾 Yuka Tokumitsu
       松冈茉优 Mayu Matsuoka
       小野大辅 Daisuke Ono

◎标  签 怀旧 | 剧场版 | 日本 | 动漫 | 2020 | 动画 | 热血 | 童年

◎简  介

  2010年,曾经的小学生们已经步入大学,太一、阿和等人步上不同的人生道路(八神太一和石田大和将会成长为22岁),而就在此时,数码宝贝的研究者メノア(松冈茉优 配音)却告诉他们:“被选召的孩子们”长大成人后,数码宝贝也将随之消失…。预告中字幕表明这是“太一他们最后的故事” ,结尾则注明:献给所有和数码宝贝一起成长的“孩子”们,还有亚古兽注视着长大成人的太一的背影,“太一,你长大了呢”。
Video
ID                                       : 1
Format                                   : AVC
Format/Info                              : Advanced Video Codec
Format settings                          : CABAC / 4 Ref Frames
Format settings, CABAC                   : Yes
Format settings, Reference frames        : 4 frames
Codec ID                                 : V_MPEG4/ISO/AVC
Duration                                 : 1 h 34 min
Bit rate                                 : 12.0 Mb/s
Width                                    : 1 920 pixels
Height                                   : 1 080 pixels
Display aspect ratio                     : 16:9
Frame rate mode                          : Constant
Frame rate                               : 23.976 (24000/1001/189150) FPS
Color space                              : YUV
Chroma subsampling                       : 4:2:0
Bit depth                                : 8 bits
Scan type                                : Progressive
Bits/(Pixel*Frame)                       : 0.241
Stream size                              : 7.94 GiB (80%)
Writing library                          : x264 core 130 r2273 b3065e6
Encoding settings                        : cabac=1 / ref=4 / deblock=1:-1:-1 / analyse=0x3:0x113 / me=umh / subme=11 / psy=1 / psy_rd=1.00:0.00 / mixed_ref=1 / me_range=64 / chroma_me=1 / trellis=2 / 8x8dct=1 / cqm=0 / deadzone=21,11 / fast_pskip=0 / chroma_qp_offset=-4 / threads=12 / lookahead_threads=2 / sliced_threads=0 / nr=0 / decimate=0 / interlaced=0 / bluray_compat=0 / constrained_intra=0 / bframes=8 / b_pyramid=2 / b_adapt=2 / b_bias=0 / direct=3 / weightb=1 / open_gop=0 / weightp=2 / keyint=250 / keyint_min=23 / scenecut=40 / intra_refresh=0 / rc=2pass / mbtree=0 / bitrate=12000 / ratetol=1.0 / qcomp=0.60 / qpmin=0 / qpmax=69 / qpstep=4 / cplxblur=20.0 / qblur=0.5 / ip_ratio=1.40 / pb_ratio=1.30 / aq=1:0.80
Language                                 : English
Default                                  : Yes
Forced                                   : No

Audio #1
ID                                       : 2
Format                                   : DTS
Format/Info                              : Digital Theater Systems
Codec ID                                 : A_DTS
Duration                                 : 1 h 34 min
Bit rate mode                            : Constant
Bit rate                                 : 1 509 kb/s
Channel(s)                               : 6 channels
Channel layout                           : C L R Ls Rs LFE
Sampling rate                            : 48.0 kHz
Frame rate                               : 93.750 FPS (512 SPF)
Bit depth                                : 24 bits
Compression mode                         : Lossy
Stream size                              : 1 021 MiB (10%)
Title                                    : 日语
Language                                 : Japanese
Default                                  : Yes
Forced                                   : No

Audio #2
ID                                       : 3
Format                                   : DTS
Format/Info                              : Digital Theater Systems
Codec ID                                 : A_DTS
Duration                                 : 1 h 34 min
Bit rate mode                            : Constant
Bit rate                                 : 1 509 kb/s
Channel(s)                               : 6 channels
Channel layout                           : C L R Ls Rs LFE
Sampling rate                            : 48.0 kHz
Frame rate                               : 93.750 FPS (512 SPF)
Bit depth                                : 24 bits
Compression mode                         : Lossy
Stream size                              : 1 023 MiB (10%)
Title                                    : 英语
Language                                 : English
Default                                  : No
Forced                                   : No

Text #1
ID                                       : 4
Format                                   : UTF-8
Codec ID                                 : S_TEXT/UTF8
Codec ID/Info                            : UTF-8 Plain Text
Duration                                 : 1 h 28 min
Bit rate                                 : 56 b/s
Count of elements                        : 1212
Stream size                              : 36.6 KiB (0%)
Language                                 : English
Default                                  : Yes
Forced                                   : No

Text #2
ID                                       : 5
Format                                   : UTF-8
Codec ID                                 : S_TEXT/UTF8
Codec ID/Info                            : UTF-8 Plain Text
Duration                                 : 1 h 29 min
Bit rate                                 : 44 b/s
Count of elements                        : 1110
Stream size                              : 29.1 KiB (0%)
Language                                 : English
Default                                  : No
Forced                                   : No




                                                                                                                                                                                                        
                                                                                                                                                                                                                                                                                                                                                                                                                                                                                    
68e0ed98fe78cb076664c7459e39a1bf.zip (50.62 KB, 下载次数: 0)

回复

使用道具 举报

小黑屋|百度云资源论坛 |网站地图

本网站所有资源来自网络,如无意中侵犯了您的权益,请发邮件至 [email protected],立即清除相关链接

GMT+8, 2020-10-28 01:29 , Processed in 0.142721 second(s), 23 queries .

Powered by Discuz! X3.2

© 2001-2013 Comsenz Inc.

快速回复 返回顶部 返回列表